Link 1 FS-F | BD Gingitsune Subtitle Indonesia | Mulan : Rise Of A Warrior (2009)

Скачать через торрент Опасный круиз Серии: 1-2 из 2 Фильм бесплатно в хорошем качестве torrent

Скачивайте на UnionPeer.org фильмы через торрент без регистрации. Новинки кино в хорошем качестве через торрент. На UnionPeer.org можно скачать через торрент фильмы 2014 и 2015 годов. Самые новые фильмы.

Скачать торрент Опасный круиз Серии: 1-2 из 2 бесплатно через .torrent фильм мультфильм сериал

Если у вас наблюдаются проблемы со скриншотами, переходом по ссылками, скачиванием торрентов - проблемы в блокировщике рекламы AdBlock. #хорошегоДня!


Статистика раздачи
Размер:  1.7 GB   |    Зарегистрирован:  7 дней   |    .torrent скачан:  38 раз   |   
Раздают:  2  
   
Загрузка...
 
Автор Сообщение

Galfimbul

avatar Galfimbul


Опасный круиз

Год выпуска: 2017
Производство: Leandra
Жанр: детектив, криминал
Продолжительность: ~00:43:00 серия
Субтитры: нет

Режиссёр: Дмитрий Аверин

В ролях: Екатерина Тарасова, Юрий Батурин, Александр Ратников, Галина Бокашевская, Георгий Маришин, Юрий Орлов , Яна Фоминых, Алексей Копылов, Илья Рябов, Ринат Муталлапов, Елена Ложкина, Ольга Михайлова , Ольга Гордийчук, Юлия Шелковникова

Описание: Всем известно, что выяснять отношения с начальством – дело небезопасное. Несправедливое увольнение толкает менеджера Лику Ракитину на отчаянный поступок – вслед за высокомерным и крайне неприятным ей боссом она отправляется в круиз на Валаам. Лика смертельно боится корабельной качки, но не подозревает, что в этом путешествии её ждут куда более страшные испытания. В первую же ночь она обнаруживает, что соседка по каюте мертва, а все улики указывают на Лику.

Реклама: Нет.



Sample

Качество: WEBRip 1080p - Olyanchik
Формат: MKV
Видео кодек: H.264
Аудио кодек: AC3
Видео: MPEG4 AVC Video, H264, 16:9, 1920x1080, 24 fps, ~2400 kbps, 0.047 bit/pixel
Аудио: AC3 Dolby Digital, 44.1 kHz, 2/0 (L,R) ch, 192 kbps
General
Unique ID : 173899015357310580860907389333370140638 (0x82D3BB6ABFBC8877AC9148F57CF177DE)
Complete name : D:\сериалы сид\Opasny.kruiz.2018.WEBRip(1080р).Kinozal-Reliz.by.Olyanchik\01.Opasny.kruiz.2018.WEBRip(1080р).Kinozal-Reliz.by.Olyanchik.mkv
Format : Matroska
Format version : Version 4 / Version 2
File size : 802 MiB
Duration : 43mn 40s
Overall bit rate : 2 569 Kbps
Encoded date : UTC 2018-02-09 16:10:38
Writing application : mkvmerge v9.6.0 ('Slave To Your Mind') 64bit
Writing library : libebml v1.3.4 + libmatroska v1.4.5
DURATION : 00:43:40.256000000
NUMBER_OF_FRAMES : 75230
NUMBER_OF_BYTES : 62886138
_STATISTICS_WRITING_APP : mkvmerge v9.6.0 ('Slave To Your Mind') 64bit
_STATISTICS_WRITING_DATE_UTC : 2018-02-09 16:10:38
_STATISTICS_TAGS : BPS DURATION NUMBER_OF_FRAMES NUMBER_OF_BYTES

Video
ID : 1
Format : AVC
Format/Info : Advanced Video Codec
Format profile : [email protected]
Format settings, CABAC : Yes
Format settings, ReFrames : 2 frames
Codec ID : V_MPEG4/ISO/AVC
Duration : 43mn 40s
Bit rate : 2 326 Kbps
Width : 1 920 pixels
Height : 1 080 pixels
Display aspect ratio : 16:9
Frame rate mode : Constant
Frame rate : 24.000 fps
Color space : YUV
Chroma subsampling : 4:2:0
Bit depth : 8 bits
Scan type : Progressive
Bits/(Pixel*Frame) : 0.047
Stream size : 726 MiB (91%)
Default : Yes
Forced : No
Color primaries : BT.601 PAL
Transfer characteristics : BT.709
Matrix coefficients : BT.601

Audio
ID : 2
Format : AC-3
Format/Info : Audio Coding 3
Mode extension : CM (complete main)
Format settings, Endianness : Big
Codec ID : A_AC3
Duration : 43mn 40s
Bit rate mode : Constant
Bit rate : 192 Kbps
Channel count : 2 channels
Channel positions : Front: L R
Sampling rate : 44.1 KHz
Bit depth : 16 bits
Compression mode : Lossy
Stream size : 60.0 MiB (7%)
Default : Yes
Forced : No


Трекер:  [ 11-Фев-2018 10:48 ]

  

Скачать .torrent

Размер .torrent файла 17 KB


Размер: 1.7 GB
Хэш (hash) релиза: 85dc1db44c34d1655ef1f02ca26f8f72c37b20cd
Подписка на обновления:

Торренты, похожие на Опасный круиз Серии: 1-2 из 2 скачать торрент

Форум Название Автор Размер S L Добавлен
Российские сериалы ·· Опасный круиз / Серии: 1-2 из 2 (Дмитрий Аверин) [2017, детектив, криминал, SATRip-AVC] aleksan55 11513331881.07 GB 3 0 1518193489

19:24

9-Фев-18

Еще никто не оставлял запись к записи скачать торрент Опасный круиз Серии: 1-2 из 2 . Будь первым!

!Обратная связь