Small Town Crime
John Hawkes

Скачать через торрент Молодёжка Сезон: 4 Фильм бесплатно в хорошем качестве torrent

Скачивайте на UnionPeer.org фильмы через торрент без регистрации. Новинки кино в хорошем качестве через торрент. На UnionPeer.org можно скачать через торрент фильмы 2014 и 2015 годов. Самые новые фильмы.

Скачать торрент Молодёжка Сезон: 4 бесплатно через .torrent фильм мультфильм сериал

Если у вас наблюдаются проблемы со скриншотами, переходом по ссылками, скачиванием торрентов - проблемы в блокировщике рекламы AdBlock. #хорошегоДня!


Статистика раздачи
Размер:  35.51 GB   |    Зарегистрирован:  12 дней   |    .torrent скачан:  29 раз   |   
Раздают:  1  
   
Загрузка...
 
Автор Сообщение

Galfimbul

avatar Galfimbul


Молодёжка

Год выпуска: 2016-2017
Производство: ООО Арт Пикчерс Вижн
Жанр: драма, спорт
Продолжительность: ~00:47:00 серия
Субтитры: нет

Режиссёр: Сергей Арланов

В ролях: Денис Никифоров, Андрей Мерзликин, Михаил Жигалов, Фёдор Бондарчук, Сергей Габриэлян, Владимир Зайцев, Сергей Комаров, Анатолий Кот, Анатолий Лобоцкий, Ксения Лаврова-Глинка, Серафима Низовская, Валентина Ананьина, Макар Запорожский, Александр Соколовский, Влад Канопка, Илья Коробко, Игорь Огурцов, Иван Жвакин, Анна Михайловская, Мария Иващенко, Иван Мулин, Иван Дубровский, Матвей Зубалевич, Валерия Гладилина, Юлия Маргулис, Мария Пирогова, Вадим Андреев
Описание: «Молодежка» 4 сезон – это телесериал не только про мир хоккея, но и про семейные ценности, любовь и дружбу. Впереди у «Медведей» и «Титана» плей-офф чемпионата МХЛ, и, скорее всего, команды сразятся в финале турнира за право быть первыми. Но, играя за разные команды, ребята сумели сохранить дружбу и простить старые обиды. Егор Щукин успешно перенес операцию на позвоночнике в израильской клинике, но сможет ли он играть еще неизвестно. Капитан команды «Медведей» Андрей Кисляк с нетерпением ждет пополнения в семействе и не меньше жены Яны мечтает узнать пол будущего ребенка.

Реклама: Нет.



Sample

Качество: WEBRip-AVC - ExKinoRay
Формат: MKV
Видео кодек: H.264
Аудио кодек: AC3
Видео: MPEG4 AVC Video, H264, 16:9, 1024x576, 25 fps, ~1800 kbps, 0.126 bit/pixel
Аудио: AC3 Dolby Digital, 48.0 kHz, 2/0 (L,R) ch, 192 kbps
General
Unique ID : 241495160164255608446176230033462575561 (0xB5AE46AA756C7B4C94A1DBBC7A82C1C9)
Complete name : G:\Новая папка\Molodezhka.s04.2016.WEB-DLRip(AVC).ExKinoRay\Molodezhka.s04.e01.2016.WEB-DLRip(AVC).ExKinoRay.mkv
Format : Matroska
Format version : Version 2
File size : 700 MiB
Duration : 47mn 34s
Overall bit rate : 2 056 Kbps
Encoded date : UTC 2017-03-01 20:19:51
Writing application : mkvmerge v7.8.0 ('River Man') 32bit built on Apr 3 2015 12:11:22
Writing library : libebml v1.3.1 + libmatroska v1.4.2

Video
ID : 1
Format : AVC
Format/Info : Advanced Video Codec
Format profile : [email protected]
Format settings, CABAC : Yes
Format settings, ReFrames : 10 frames
Codec ID : V_MPEG4/ISO/AVC
Duration : 47mn 34s
Bit rate : 1 862 Kbps
Width : 1 024 pixels
Height : 576 pixels
Display aspect ratio : 16:9
Frame rate mode : Constant
Frame rate : 25.000 fps
Color space : YUV
Chroma subsampling : 4:2:0
Bit depth : 8 bits
Scan type : Progressive
Bits/(Pixel*Frame) : 0.126
Stream size : 620 MiB (89%)
Writing library : x264 core 146 r2538 121396c
Encoding settings : cabac=1 / ref=10 / deblock=1:-3:-3 / analyse=0x3:0x133 / me=umh / subme=10 / psy=1 / psy_rd=0.00:0.03 / mixed_ref=1 / me_range=48 / chroma_me=1 / trellis=2 / 8x8dct=1 / cqm=0 / deadzone=21,11 / fast_pskip=0 / chroma_qp_offset=-1 / threads=6 / lookahead_threads=1 / sliced_threads=0 / nr=0 / decimate=0 / interlaced=0 / bluray_compat=0 / constrained_intra=0 / bframes=10 / b_pyramid=2 / b_adapt=2 / b_bias=0 / direct=3 / weightb=1 / open_gop=0 / weightp=2 / keyint=240 / keyint_min=24 / scenecut=40 / intra_refresh=0 / rc_lookahead=40 / rc=2pass / mbtree=0 / bitrate=1862 / ratetol=1.0 / qcomp=0.60 / qpmin=0 / qpmax=69 / qpstep=4 / cplxblur=20.0 / qblur=0.5 / vbv_maxrate=50000 / vbv_bufsize=62500 / nal_hrd=none / filler=0 / ip_ratio=1.40 / pb_ratio=1.30 / aq=1:1.00
Default : Yes
Forced : No

Audio
ID : 2
Format : AC-3
Format/Info : Audio Coding 3
Mode extension : CM (complete main)
Format settings, Endianness : Big
Codec ID : A_AC3
Duration : 47mn 34s
Bit rate mode : Constant
Bit rate : 192 Kbps
Channel count : 2 channels
Channel positions : Front: L R
Sampling rate : 48.0 KHz
Bit depth : 16 bits
Compression mode : Lossy
Stream size : 65.3 MiB (9%)
Default : Yes
Forced : No


Трекер:  [ 11-Фев-2018 03:48 ]

  

Скачать .torrent

Размер .torrent файла 182 KB


Размер: 35.51 GB
Хэш (hash) релиза: 99c857df0ae24a4323dc1d0c71989b33e2739248
Подписка на обновления:

Еще никто не оставлял запись к записи скачать торрент Молодёжка Сезон: 4 . Будь первым!

!Обратная связь