Snake Eyes | A Great Way to Care Season 1 | Pete Davidson

Скачать через торрент Паук Серии: 1-52 из 52 Фильм бесплатно в хорошем качестве torrent

Скачивайте на UnionPeer.org фильмы через торрент без регистрации. Новинки кино в хорошем качестве через торрент. На UnionPeer.org можно скачать через торрент фильмы 2014 и 2015 годов. Самые новые фильмы.

Скачать торрент Паук Серии: 1-52 из 52 бесплатно через .torrent фильм мультфильм сериал

Статистика раздачи
Размер:  31.84 GB   |    Зарегистрирован:  6 месяцев   |    .torrent скачан:  74 раза   |   
Раздают:  1  
   
загрузка...
 
Автор Сообщение

Galfimbul

avatar Galfimbul


Паук

Год выпуска: 2017
Производство: Промоушн Фильм
Жанр: детектив
Продолжительность: ~00:48:00 серия
Субтитры: нет

Режиссёр: Наталия Микрюкова, Константин Фролов, Михаил Жерневский

В ролях: Валерий Панков, Нелла Стрекаловская, Марина Бойко, Александра Киселева, Андрей Андриевский, Игорь Сильченко, Татьяна Абраменко, Анастасия Борисова, Виталий Бродовский, Павел Демьянов, Алексей Толстов, Григорий Шариков, Алексей Вакулов, Владимир Колосов, Майя Вознесенская, Александр Воробьёв, Елена Коллегова, Александр Левин, Юлия Ковалевская
Описание: Глеб живет стерильной жизнью в герметичном мире. Он дышит воздухом без микробов и допускает только дистиллированные отношения — без эмпатии, привязанности и прочей «грязи». Он смотрит на мир через окно — окно браузера. Впрочем, это его работа: Глеб — гениальный хакер, который борется с преступностью. Его ник — Паук. Он раскрывает самые сложные дела — те, за которые полиция даже не возьмется из-за давления, профнепригодности, коррупции или просто лени. Паук может «взломать» или подобрать пароль к чему угодно. Кроме собственной жизни.
Рейтинг сериала

Реклама: Нет.

Кинопоиск

Sample

Качество: WEBRip-AVC - Серый1779
Формат: MKV
Видео кодек: H.264
Аудио кодек: AC3
Видео: MPEG4 AVC Video, H264, 16:9, 1024x576, 25 fps, ~1600 kbps, 0.109 bit/pixel
Аудио: AC3 Dolby Digital, 44.1 kHz, 2/0 (L,R) ch, 192 kbps
General
Unique ID : 200248749317125486143253087072126079804 (0x96A6819A7DAD8ABC8C92815930ED933C)
Complete name : G:\Новая папка\Pauk.(2017).WEB-DLRip.(AVC).Files-x\01.Pauk.(2017).WEB-DLRip.(AVC).by.Серый1779.Files-x.mkv
Format : Matroska
Format version : Version 2
File size : 621 MiB
Duration : 48mn 27s
Overall bit rate : 1 793 Kbps
Encoded date : UTC 2017-10-10 02:42:17
Writing application : mkvmerge v7.8.0 ('River Man') 32bit built on Apr 3 2015 12:11:22
Writing library : libebml v1.3.1 + libmatroska v1.4.2

Video
ID : 1
Format : AVC
Format/Info : Advanced Video Codec
Format profile : [email protected]
Format settings, CABAC : Yes
Format settings, ReFrames : 9 frames
Codec ID : V_MPEG4/ISO/AVC
Duration : 48mn 27s
Bit rate : 1 600 Kbps
Width : 1 024 pixels
Height : 576 pixels
Display aspect ratio : 16:9
Frame rate mode : Constant
Frame rate : 25.000 fps
Color space : YUV
Chroma subsampling : 4:2:0
Bit depth : 8 bits
Scan type : Progressive
Bits/(Pixel*Frame) : 0.109
Stream size : 543 MiB (87%)
Writing library : x264 core 146 r2538 121396c
Encoding settings : cabac=1 / ref=9 / deblock=1:-2:-1 / analyse=0x3:0x113 / me=umh / subme=9 / psy=1 / psy_rd=1.00:0.15 / mixed_ref=1 / me_range=32 / chroma_me=1 / trellis=2 / 8x8dct=1 / cqm=0 / deadzone=21,11 / fast_pskip=0 / chroma_qp_offset=-3 / threads=18 / lookahead_threads=3 / sliced_threads=0 / nr=0 / decimate=1 / interlaced=0 / bluray_compat=0 / constrained_intra=0 / bframes=9 / b_pyramid=2 / b_adapt=2 / b_bias=0 / direct=1 / weightb=1 / open_gop=0 / weightp=2 / keyint=250 / keyint_min=25 / scenecut=40 / intra_refresh=0 / rc_lookahead=40 / rc=2pass / mbtree=0 / bitrate=1600 / ratetol=1.0 / qcomp=0.60 / qpmin=0 / qpmax=69 / qpstep=4 / cplxblur=20.0 / qblur=0.5 / vbv_maxrate=14000 / vbv_bufsize=14000 / nal_hrd=none / filler=0 / ip_ratio=1.40 / pb_ratio=1.30 / aq=2:1.00
Default : Yes
Forced : No
Color primaries : BT.709
Transfer characteristics : BT.709
Matrix coefficients : BT.709

Audio
ID : 2
Format : AC-3
Format/Info : Audio Coding 3
Mode extension : CM (complete main)
Format settings, Endianness : Big
Codec ID : A_AC3
Duration : 48mn 27s
Bit rate mode : Constant
Bit rate : 192 Kbps
Channel count : 2 channels
Channel positions : Front: L R
Sampling rate : 44.1 KHz
Bit depth : 16 bits
Compression mode : Lossy
Stream size : 66.6 MiB (11%)
Default : Yes
Forced : No


Трекер:  [ 11-Фев-2018 01:18 ]

  

Скачать .torrent

Размер .torrent файла 164 KB


Размер: 31.84 GB
Хэш (hash) релиза: 9b4d959547e9812b31e1dc62618db54b2bf46fdb
Подписка на обновления:

Торренты, похожие на Паук Серии: 1-52 из 52 скачать торрент

Форум Название Автор Размер S L Добавлен
Мультсериалы ·· Человек-Паук 1967/ Spider-Man 1967 / Сезон: 1-3 / Серии: 1-52 из 52 (Грант Симонс /Grant Simmons), [1967-1970, боевик, драма, DVDRemux] MVO (СТС) + 3xAVO (Михалев, Горчаков, Володарский) + Original + Subs Galfimbul 4361891744540.62 GB 0 0 1526631850

11:24

18-Май-18

Еще никто не оставлял запись к записи скачать торрент Паук Серии: 1-52 из 52 . Будь первым!

!Обратная связь