BELLE ET SÉBASTIEN 3 : LE DERNIER CHAPITRE Film Telecharger torrent | Sweeney Todd, Le Diabolique Barbier De Fleet Street | GAMES LIST

Скачать через торрент Садистская смесь Blend S бесплатно Аниме Все серии на русском torrent

Статистика раздачи
Размер:  13.38 GB   |    Зарегистрирован:  3 месяца 13 дней   |    .torrent скачан:  27 раз   |   
Раздают:  1  
   
загрузка...
 
Автор Сообщение

Galfimbul

avatar Galfimbul


Садистская смесь / Blend S

Год выпуска: 2017
Страна: Япония
Жанр: комедия, повседневность
Тип: TV
Продолжительность: 12 эп. по 24 мин.
Озвучка:

Многоголосая от Arato & Gomer & MyAska & Pipets (AniLibria)

Русские субтитры: есть (отдельным файлом, формат .ass)
Перевод:

Капитан, Octupus [AniPlay]
KuroKaze, ChocoVanilla [SovetRomantica]

Хардсаб: Нет
Режиссер: Масуяма Рёдзи
Студия: A-1 Pictures

Описание: Майка Сакураномия обычная школьница, которая пытается найти подработку, чтобы поехать обучаться за границу. Только вот девушке постоянно отказывают из-за её «особенного» взгляда... После очередного проваленного собеседования Майка, возвращаясь домой, натыкается на Дино, озабоченного темноволосыми девушками менеджера, который предлагает ей работу в кафе «Stile». Вот тут-то необычный взор Майки оказался совершенно кстати, ведь кафе Дино не обычное, а ролевое! И Майке в нём предстоит играть очень интересную роль.

Качество: Blu-Ray Remux
Формат: MKV
Видео кодек: AVC
Аудио кодек: FLAC
Видео: 1920x1080 (16:9) 23,976 fps ~36,7 Mbps 8bit
Аудио:
Jap FLAC, 48000Hz, ~1412 Kbps, 2ch
RUS (ext) AAC, 48000Hz, ~192 Kbps, 2ch

Чаптеры присутствуют.
01. Первый опыт в роли суперсадистки
02. Сладости без чести
03. Рейтинг 18+
04. Новенькая старшая сестрёнка
05. Дождливый, а после ветреный
06. Матсубара на берегу реки и так далее
07. Бананово-клубничные дела
08. Теперь ещё и идол
09. Инаугурация владельца, атака сестёр
10. Я скажу тебе
11. Прекрасная цундэрэ, ужасный романтик
12. Я люблю тебя!
Общее
Уникальный идентификатор : 273637932335039656322086195250570087649 (0xCDDCBFB012F20A9B9774ABCCD0564CE1)
Полное имя : Z:\Anime Release - working\Blend S\[anti-raws]Blend S ep.01[BDRemux].mkv
Формат : Matroska
Версия формата : Version 4 / Version 2
Размер файла : 6,45 Гбайт
Продолжительность : 23 м. 41 с.
Режим общего битрейта : Переменный
Общий поток : 39,0 Мбит/сек
Дата кодирования : UTC 2018-02-10 18:42:27
Программа кодирования : mkvmerge v20.0.0 ('I Am The Sun') 64-bit
Библиотека кодирования : libebml v1.3.5 + libmatroska v1.4.8

Видео
Идентификатор : 2
Формат : AVC
Формат/Информация : Advanced Video Codec
Профиль формата : [email protected]
Настройки формата : CABAC / 4 Ref Frames
Параметр CABAC формата : Да
Параметр RefFrames формата : 4 кадра
Идентификатор кодека : V_MPEG4/ISO/AVC
Продолжительность : 23 м. 41 с.
Вид битрейта : Переменный
Битрейт : 37,6 Мбит/сек
Максимальный битрейт : 39,0 Мбит/сек
Ширина : 1920 пикселей
Высота : 1080 пикселей
Соотношение сторон : 16:9
Режим частоты кадров : Постоянный
Частота кадров : 23,976 (24000/1001) кадра/сек
Цветовое пространство : YUV
Субдискретизация насыщенности : 4:2:0
Битовая глубина : 8 бит
Тип развёртки : Прогрессивная
Бит/(Пиксели*Кадры) : 0.756
Размер потока : 6,22 Гбайт (96%)
Default : Нет
Forced : Нет

Аудио
Идентификатор : 1
Формат : FLAC
Формат/Информация : Free Lossless Audio Codec
Идентификатор кодека : A_FLAC
Продолжительность : 23 м. 41 с.
Вид битрейта : Переменный
Битрейт : 1411 Кбит/сек
Каналы : 2 канала
Расположение каналов : Front: L R
Частота : 48,0 КГц
Частота кадров : 11,719 кадров/сек (4096 SPF)
Битовая глубина : 24 бит
Размер потока : 239 Мбайт (4%)
Библиотека кодирования : libFLAC 1.2.1 (UTC 2007-09-17)
Язык : Japanese
Default : Да
Forced : Нет

Меню
00:00:00.000 : en:00:00:00.000
00:02:56.051 : en:00:02:56.051
00:04:26.016 : en:00:04:26.016
00:11:33.026 : en:00:11:33.026
00:21:45.012 : en:00:21:45.012
00:23:14.977 : en:00:23:14.977
00:23:34.997 : en:00:23:34.997
...5463862
--HDTVRip

...5494319
--WEBRip

...5518968
--BDRip

Эта раздача - BDRemux


Трекер:  [ 11-Фев-2018 00:30 ]

  

Скачать .torrent

Размер .torrent файла 19 KB


Размер: 13.38 GB
Хэш (hash) релиза: 4a7794a920b2d325bc202a85a5aa3ec96804d08f
Подписка на обновления:

Еще никто не оставлял запись к записи скачать торрент Садистская смесь Blend S . Будь первым!

!Обратная связь