ROMs and modifications | Insidious La ultima LLave BluRay MicroHD | DS - Dire Straits

Скачать через торрент Лапси Серии: 1-2 из 8 Фильм бесплатно в хорошем качестве torrent

Скачивайте на UnionPeer.org фильмы через торрент без регистрации. Новинки кино в хорошем качестве через торрент. На UnionPeer.org можно скачать через торрент фильмы 2014 и 2015 годов. Самые новые фильмы.

Скачать торрент Лапси Серии: 1-2 из 8 бесплатно через .torrent фильм мультфильм сериал

Статистика раздачи
Размер:  4.47 GB   |    Зарегистрирован:  3 месяца 15 дней   |    .torrent скачан:  73 раза   |   
Раздают:  1  
   
загрузка...
 
Автор Сообщение

Galfimbul

avatar Galfimbul


Лапси

Год выпуска: 2018
Производство: Yellow, Black and White, Кинокомпания «Небо»
Жанр: мистика, триллер, драма
Продолжительность: ~00:48:00 серия
Субтитры: нет

Режиссёр: Артем Аксененко

В ролях: Мария Машкова, Даниил Воробьёв, Диана Пожарская, Антон Кузнецов, Денис Парамонов, Иван Верховых, Наталия Вдовина, Владимир Чуприков, Михаил Химичев, Максим Жегалин, Олег Дуленин, Ирина Чериченко, Алла Иванцова, Борис Хвошнянский, Максим Белбородов
Описание: В карельской деревне обнаружен штамм нетипичного для местности заболевания — лихорадки Западного Нила. Руководитель НИИ Вирусологии отправляет на разведку эпидемиологов-вирусологов Веру Бойко и Николая Романова. Их связывает непростое прошлое, и соглашаются на совместную командировку они с трудом. В поисках источника вируса Вера и Николай обнаруживают у себя симптомы смертельно опасной болезни. Когда на странном острове Сариола она вдруг отступает, трудности только начинаются. Учёным предстоит разгадать тайну этого места, постичь непростые правила выживания среди его жителей, разобраться в своих отношениях, которые закончились много лет назад, и найти способ вернуться домой, ведь при попытке сбежать симптомы лихорадки возвращаются.

Реклама: Нет.

Кинопоиск
Все раздачи сериала
Sample

Качество: WEBRip 1080p - Files-x
Формат: MKV
Видео кодек: H.264
Аудио кодек: AC3
Видео: MPEG4 AVC Video, H264, 2.40:1, 1920x800, 25 fps, ~6250 kbps, 0.170 bit/pixel
Аудио: AC3 Dolby Digital, 48.0 kHz, 2/0 (L,R) ch, 192 kbps
Раздача ведётся путём добавления новых серий, при каждом добавлении создаётся новый торрент. Чтобы начать докачку новой серии, пользователям необходимо сделать следующее:

- Остановить скачивание.
- Удалить старый торрент у себя из клиента (старые серии удалять не надо).
- Скачать новый торрент и запустить его у себя в клиенте вместо старого, при этом указать клиенту путь в старую папку куда и должно происходить скачивание новых серий.

Ваш клиент при этом должен произвести хеширование (проверку) старой папки (если не производит сам - помогите ему сделать это), и будет докачивать только те серии которых у вас ещё нет. Старые серии при этом не удаляются, а продолжают раздаваться!
Если вы уже удалили старые серии, то предотвратить повторную закачку старых серий можно, отжав галочку в соответствующих местах при запуске нового торрента. По возможности, желательно не удалять старые серии как можно дольше, чтобы релизер не столько продолжал раздавать старые серии, а смог сконцентрироваться на новых.
General
Unique ID : 241518663022931265222513772030403103522 (0xB5B2CD723D988F03B50601F3570D4B22)
Complete name : D:\Лапси (2018) Files-x\02.Лапси. 2018.WEB-DL (1080p) .mkv
Format : Matroska
Format version : Version 2
File size : 2.25 GiB
Duration : 48mn 57s
Overall bit rate : 6 572 Kbps
Encoded date : UTC 2018-02-09 17:13:20
Writing application : mkvmerge v7.8.0 ('River Man') 32bit built on Apr 3 2015 12:11:22
Writing library : libebml v1.3.1 + libmatroska v1.4.2

Video
ID : 1
Format : AVC
Format/Info : Advanced Video Codec
Format profile : [email protected]
Format settings, CABAC : Yes
Format settings, ReFrames : 4 frames
Codec ID : V_MPEG4/ISO/AVC
Duration : 48mn 57s
Bit rate : 6 249 Kbps
Width : 1 920 pixels
Height : 800 pixels
Display aspect ratio : 2.40:1
Frame rate mode : Constant
Frame rate : 23.976 fps
Color space : YUV
Chroma subsampling : 4:2:0
Bit depth : 8 bits
Scan type : Progressive
Bits/(Pixel*Frame) : 0.170
Stream size : 2.14 GiB (95%)
Default : Yes
Forced : No

Audio
ID : 2
Format : AC-3
Format/Info : Audio Coding 3
Mode extension : CM (complete main)
Format settings, Endianness : Big
Codec ID : A_AC3
Duration : 48mn 57s
Bit rate mode : Constant
Bit rate : 192 Kbps
Channel count : 2 channels
Channel positions : Front: L R
Sampling rate : 48.0 KHz
Bit depth : 16 bits
Compression mode : Lossy
Stream size : 67.2 MiB (3%)
Default : Yes
Forced : No


Трекер:  [ 11-Фев-2018 00:18 ]

  

Скачать .torrent

Размер .torrent файла 23 KB


Размер: 4.47 GB
Хэш (hash) релиза: dffcb9c4b8cc3714b1b4b005b55821a63df1f7c5
Подписка на обновления:

Торренты, похожие на Лапси Серии: 1-2 из 8 скачать торрент

Форум Название Автор Размер S L Добавлен
Российские сериалы ·· Лапси / Серии: 1-2 из 8 (Артём Аксененко) [2018, Мистика, триллер, драма, WEBRip] Galfimbul 12421529601.16 GB 0 0 1518231059

05:50

10-Фев-18

Еще никто не оставлял запись к записи скачать торрент Лапси Серии: 1-2 из 8 . Будь первым!

!Обратная связь