High Maintenance | Literatur Romane | Sung-jun Yoo

Скачать через торрент Ближайшие родственники Next of Kin Фильм бесплатно в хорошем качестве torrent

Скачивайте на UnionPeer.org фильмы через торрент без регистрации. Новинки кино в хорошем качестве через торрент. На UnionPeer.org можно скачать через торрент фильмы 2014 и 2015 годов. Самые новые фильмы.

Скачать торрент Ближайшие родственники Next of Kin бесплатно через .torrent фильм мультфильм сериал

Статистика раздачи
Размер:  5.96 GB   |    Зарегистрирован:  3 месяца 12 дней   |    .torrent скачан:  12 раз   |   
Раздают:  1  
   
загрузка...
 
Автор Сообщение

Galfimbul

avatar Galfimbul


Ближайшие родственники / Next of Kin

Год выпуска: 2018
Страна: Великобритания
Жанр: Драма
Продолжительность: ~ 00:43:00

Перевод: Профессиональный многоголосый закадровый (AMS)

Режиссёр: Джастин Чадвик, Jamie Childs

В ролях: Арчи Панджаби, Viveik Kalra, Д. Эли Хаддад, Навин Чоудхри, Нассер Мемарзиа, Кайли Хатчинсон, Талита Линдо, John Whitby, Джек Девенпорт и другие

Описание:
Мона Ширани (Арчи Панджаби) живет в Лондоне со своим мужем — политическим лоббистом Гарри Харкором (Джек Девенпорт). Однако, семейная жизнь Моны дает трещину, после того, как её родного брата жестоко убивают в медицинской благотворительной организации за рубежом. Смерть брата раскрывает множество «скелетов», которые хранили в тайне все члены семьи. Каждый находится под подозрением и старается защитить своих близких и карьеру от сплетен и ложных домыслов.

/ Сэмпл

Качество: WEBRip 720p
Контейнер: MKV

Видео: MPEG-4 AVC, 1280x640, 16:9, ~4671 Кбит/с, 25 fps, ~0.203 bit/pixel
Аудио 1: Русский, AC3, 48.0 KHz, 2 channels, 224 Kbps
Аудио 2: Английский, AC3, 48.0 KHz, 2 channels, 224 Kbps
Субтитры: Английские (softsub SRT)

Реклама: Присутствует звуковая (два раза: в начале и конце по 12 сек)
General
Unique ID : 31949704161766588692507246631578071038 (0x18094A08BEDA1ABCA919F2C330896FFE)
Complete name : /Next.of.Kin.S01.720p.WEBRip.AMS/Next.of.Kin.S01E01.720p.WEBRip.AMS.mkv
Format : Matroska
Format version : Version 4 / Version 2
File size : 1.55 GiB
Duration : 43mn 49s
Overall bit rate : 5 065 Kbps
Encoded date : UTC 2018-01-01 23:59:59
Writing application : mkvmerge v8.2.0 ('World of Adventure') 64bit
Writing library : libebml v1.3.1 + libmatroska v1.4.2

Video
ID : 1
Format : AVC
Format/Info : Advanced Video Codec
Format profile : [email protected]
Format settings, CABAC : Yes
Format settings, ReFrames : 9 frames
Codec ID : V_MPEG4/ISO/AVC
Duration : 43mn 19s
Bit rate : 4 671 Kbps
Width : 1 280 pixels
Height : 720 pixels
Display aspect ratio : 16:9
Frame rate mode : Constant
Frame rate : 25.000 fps
Color space : YUV
Chroma subsampling : 4:2:0
Bit depth : 8 bits
Scan type : Progressive
Bits/(Pixel*Frame) : 0.203
Stream size : 1.41 GiB (91%)
Writing library : x264 core 148 r2744 b97ae06
Encoding settings : cabac=1 / ref=9 / deblock=1:-3:-3 / analyse=0x3:0x133 / me=umh / subme=10 / psy=1 / psy_rd=1.00:0.00 / mixed_ref=1 / me_range=48 / chroma_me=1 / trellis=2 / 8x8dct=1 / cqm=0 / deadzone=21,11 / fast_pskip=0 / chroma_qp_offset=-2 / threads=12 / lookahead_threads=2 / sliced_threads=0 / nr=0 / decimate=0 / interlaced=0 / bluray_compat=0 / constrained_intra=0 / bframes=9 / b_pyramid=0 / b_adapt=2 / b_bias=0 / direct=3 / weightb=1 / open_gop=0 / weightp=2 / keyint=250 / keyint_min=25 / scenecut=40 / intra_refresh=0 / rc_lookahead=60 / rc=crf / mbtree=0 / crf=17.0 / qcomp=0.60 / qpmin=10 / qpmax=51 / qpstep=4 / vbv_maxrate=62500 / vbv_bufsize=78125 / crf_max=0.0 / nal_hrd=none / filler=0 / ip_ratio=1.40 / pb_ratio=1.30 / aq=3:0.70
Language : English
Default : Yes
Forced : No

Audio #1
ID : 2
Format : AC-3
Format/Info : Audio Coding 3
Mode extension : CM (complete main)
Format settings, Endianness : Big
Codec ID : A_AC3
Duration : 43mn 49s
Bit rate mode : Constant
Bit rate : 224 Kbps
Channel(s) : 2 channels
Channel positions : Front: L R
Sampling rate : 48.0 KHz
Frame rate : 31.250 fps (1536 spf)
Compression mode : Lossy
Stream size : 70.2 MiB (4%)
Language : Russian
Default : Yes
Forced : No

Audio #2
ID : 3
Format : E-AC-3
Format/Info : Audio Coding 3
Format settings, Endianness : Big
Codec ID : A_EAC3
Duration : 43mn 19s
Bit rate mode : Constant
Bit rate : 224 Kbps
Channel(s) : 2 channels
Channel positions : Front: L R
Sampling rate : 48.0 KHz
Frame rate : 187.500 fps (256 spf)
Compression mode : Lossy
Stream size : 69.4 MiB (4%)
Language : English
Default : No
Forced : No


Трекер:  [ 10-Фев-2018 18:24 ]

  

Скачать .torrent

Размер .torrent файла 60 KB


Размер: 5.96 GB
Хэш (hash) релиза: 4cea4efc99e481c6b8104c341235b42e00fab95c
Подписка на обновления:

Еще никто не оставлял запись к записи скачать торрент Ближайшие родственники Next of Kin . Будь первым!

!Обратная связь