Watch movie
Ann Ogbomo

Скачать через торрент Видоизмененный углерод Altered Carbon Фильм бесплатно в хорошем качестве torrent

Скачивайте на UnionPeer.org фильмы через торрент без регистрации. Новинки кино в хорошем качестве через торрент. На UnionPeer.org можно скачать через торрент фильмы 2014 и 2015 годов. Самые новые фильмы.

Скачать торрент Видоизмененный углерод Altered Carbon бесплатно через .torrent фильм мультфильм сериал

Статистика раздачи
Размер:  4.18 GB   |    Зарегистрирован:  3 месяца 11 дней   |    .torrent скачан:  44 раза   |   
Раздают:  1  
   
загрузка...
 
Автор Сообщение

Galfimbul

avatar Galfimbul


Видоизмененный углерод / Altered Carbon
Страна: США
Год выпуска: 2018
Жанр: фантастика
Продолжительность: ~ 00:46:00 серия
Перевод: Любительский (многоголосый закадровый) AlexFilm
Премьера (мир): 2 февраля 2018
Режиссер: Ута Бризвитц / Uta Briesewitz, Питер Хор / Peter Hoar, Ник Харран / Nick Hurran
В главных ролях: Антонио Марциале (Isaac Bancroft), Крис Коннер (Poe), Хиро Канагава (Captain Tanaka), Кристин Леман (Miriam Bancroft), Алика Аутран (Okulov), Тич Грант (Jimmy DeSoto), Юэль Киннаман (Takeshi Kovacs), Хэйли Лоу (Lizzie Elliot), Заф Пару (Curtis), Джеймс Пьюрфой (Laurens Bancroft), Валид Зуэйтер (Abboud), Адам Буш (Mickey)
Описание фильма:
Земля, XXVII век. Мир, в котором появилась возможность «сгружать» человеческое сознание и личность из одного тела в другое. Идеальный мир и для преступников, и для полицейских, и для армии… но вряд ли идеальный для бывшего военного спецназовца Такеси Ковача, которого миллиардер Бэнкрофт нанял… для расследования гибели одного из своих тел. Внешне — явное самоубийство. В действительности — явное убийство. Вот только воспоминания об убийце уничтожены вместе с телом-клоном… С чего начать?!
<div class="post-box" style="border-color: #d2d2d2; background: #000000;">Предыдущие и альтернативные раздачи</div>
Качество видео: WEBRip
Формат: AVI
Видео: Xvid, 704x352(16:9), ~2000 kbps, 23.976 fps, 0.337 Bits/Pixel
Аудио Rus: AC-3 , 48,0 КГц, 6 ch, 384 kbps |AlexFilm|
Аудио Eng: AC-3 , 48,0 КГц, 6 ch, 384 kbps |Original|

Субтитры: Русские (PhysKids)
Реклама: Отсутствует

Из прошлого
Падший ангел
В укромном месте
Сила зла

Неправильный человек
Человек с моим лицом
Нора Ину
Ночное столкновение
Кара небесная
Убийца

ОбщееПолное имя : E:\_Сериалы\_Сериалы\Видоизмененный углерод\Altered.Carbon.S01.AlexFilm\Altered.Carbon.S01E01.WEBRip.Rus.Eng.AlexFilm.aviФормат : AVIФормат/Информация : Audio Video InterleaveРазмер файла : 1,14 ГбайтПродолжительность : 58 м. 53 с.Общий поток : 2773 Кбит/секПрограмма кодирования : VirtualDubMod 1.5.10.3 | www.virtualdub-fr.org || (build 2550/release)Библиотека кодирования : VirtualDubMod build 2550/release

ВидеоИдентификатор : 0Формат : MPEG-4 VisualПрофиль формата : Advanced [email protected]Настройки формата : BVOP1Параметр BVOP формата : 1Параметр QPel формата : НетПараметр GMC формата : Без точки переходаПараметр матрицы формата : Default (MPEG)Идентификатор кодека : XVIDИдентификатор кодека/Подсказка : XviDПродолжительность : 58 м. 53 с.Битрейт : 2002 Кбит/секШирина : 704 пикселяВысота : 352 пикселяСоотношение сторон : 2,000Частота кадров : 23,976 (24000/1001) кадра/секЦветовое пространство : YUVСубдискретизация насыщенности : 4:2:0Битовая глубина : 8 битТип развёртки : ПрогрессивнаяМетод сжатия : С потерямиБит/(Пиксели*Кадры) : 0.337Размер потока : 843 Мбайт (72%)Библиотека кодирования : XviD 1.2.1 (UTC 2008-12-04)

Аудио #1Идентификатор : 1Формат : AC-3Формат/Информация : Audio Coding 3Идентификатор кодека : 2000Продолжительность : 58 м. 2 с.Вид битрейта : ПостоянныйБитрейт : 384 Кбит/секКаналы : 6 каналовРасположение каналов : Front: L C R, Side: L R, LFEЧастота : 48,0 КГцЧастота кадров : 31,250 кадров/сек (1536 SPF)Битовая глубина : 16 битМетод сжатия : С потерямиРазмер потока : 159 Мбайт (14%)Выравнивание : Разделение по промежуткамПродолжительность промежутка : 42 мс. (1,01 видеокадр)Время предзагрузки промежутка : 500 мс.ServiceKind/String : Complete Main

Аудио #2Идентификатор : 2Формат : AC-3Формат/Информация : Audio Coding 3Идентификатор кодека : 2000Продолжительность : 58 м. 2 с.Вид битрейта : ПостоянныйБитрейт : 384 Кбит/секКаналы : 6 каналовРасположение каналов : Front: L C R, Side: L R, LFEЧастота : 48,0 КГцЧастота кадров : 31,250 кадров/сек (1536 SPF)Битовая глубина : 16 битМетод сжатия : С потерямиРазмер потока : 159 Мбайт (14%)Выравнивание : Разделение по промежуткамПродолжительность промежутка : 42 мс. (1,01 видеокадр)Время предзагрузки промежутка : 500 мс.ServiceKind/String : Complete Main


Раздача ведётся путём добавления новых серий; при каждом добавлении создаётся новый торрент.
Чтобы начать докачку новой серии, пользователям необходимо сделать следующее:
1. остановить скачивание,
2. удалить старый торрент у себя из клиента (старые серии удалять не надо),
3. скачать новый торрент и запустить его у себя в клиенте вместо старого, при этом указать клиенту путь в старую папку, куда и должно происходить скачивание новых серий.

Ваш клиент при этом должен произвести хеширование (проверку) старой папки (если не производит сам - помогите ему сделать это), и будет докачивать только те серии которых у вас ещё нет. Старые серии при этом не удаляются, а продолжают раздаваться!

Eсли вы уже удалили старые серии, то предотвратить повторную закачку старых серий можно, отжав галочку в соответствующих местах при запуске нового торрента. По возможности, желательно не удалять старые серии как можно дольше, чтобы релизёр не столько продолжал раздавать старые серии, а смог сконцентрироваться на новых.

Совет для тех, кто не хочет ждать перехеширования:
Создайте ещё одну папку рядом с папкой сериала (рядом, а не в ней!!!). Каждую новую серию после удачной загрузки копируйте в новую папку так чтобы ваша основная папка всегда была пуста. Когда ваш новый торрент предложит вам закачать все файлы, выберете только последнюю. Для сидирования же укажите адрес новой папки.

Как закачать отдельный файл из торрента или докачать ранее пропущенные файлы торрента!

1. Открыть торрент
2. Снять галки с тех файлов торрента, которые мы не хотим закачивать. Оставляем только на нужных нам файлах (файле).
3. Нажать О.К.

В клиенте utorrent

Инструкция

1) Открыть торрент


2) Снять галки с тех файлов торрента, которые мы не хотим закачивать:

* либо вручную, снимая с каждого файла галку( скрин №1)
* либо, нажав кнопку "Снять метки (Select None)", сняв сразу со всех файлов(скрин №2)
№1
№2
Оставляем только на нужных нам файлах (файле).
3)Нажать О.К

Приятного просмотра!!!

Трекер:  [ 10-Фев-2018 18:18 ]

  

Скачать .torrent

Размер .torrent файла 22 KB


Размер: 4.18 GB
Хэш (hash) релиза: b5d238244de57023e73e97bc14bd74957a910013
Подписка на обновления:

gtk87

странный, но оригинальный сериальчик. При просмотре первой серии геи и лезбухи не были обнаружены... А это по мне таки плюс.

Хотите добавить комментарий к записи скачать торрент Видоизмененный углерод Altered Carbon

!Обратная связь