Red Bottom 22176 | Hungary Movie | Coldplay Discography 2000 - 2014 (All studio albums) [320 kbps] [Hawzerstar]

Скачать через торрент Счастливого дня смерти Happy Death Day бесплатно русская версия torrent активатор

Статистика раздачи
Размер:  3.25 GB   |    Зарегистрирован:  3 месяца 11 дней   |    .torrent скачан:  29 раз   |   
Раздают:  1  
   
загрузка...
 
Автор Сообщение

Galfimbul

avatar Galfimbul


Счастливого дня смерти / Happy Death Day
«Проснись. Отпразднуй день рождения. Умри. Повтори. Снова и снова...»

6.462 / 10 6.50 / 10
Год выпуска: 2017
Страна: США
Жанр: Ужасы, триллер, детектив, комедия
Продолжительность: 01:36:11

Перевод: Дублированный (iTunes)
Оригинальная аудиодорожка: Есть
Cубтитры: Английские
Режиссёр: Кристофер Лэндон
Сценарий: Скотт Лобделл
Продюсер: Джон Балдеччи, Джейсон Блум, Филлип Дейв
Оператор: Тоби Оливер
Композитор: Беар МакКрири
Художник: СиСи ДеСтефано, Мишель С. Хэрмон, Мэган МакЛафлин
Монтаж: Грегори Плоткин
В ролях: Джессика Рот, Израэль Бруссар, Руби Модин, Чарльз Эйткин, Лаура Клифтон, Джейсон Бэйл, Роб Мелло, Рэйчел Мэттьюз, Рэмси Андерсон, Брэйди Льюис

Бюджет: $4 800 000
Сборы в США: $55 683 845
Сборы в мире: + $62 200 000 = $117 883 845
Сборы в России: $3 279 911

Мировая премьера: 7 октября 2017
Премьера (РФ): 7 декабря 2017, «UPI»

Цифровой релиз: 01 февраля 2018, «Universal»

Описание: Каждый в универе мечтал попасть на её день рождения, но праздник был безнадежно испорчен незнакомцем в маске, убившим виновницу торжества. Однако судьба преподнесла имениннице леденящий душу подарок — бесконечный запас жизней. И теперь у девушки появился шанс вычислить своего убийцу, ведь этот день будет повторяться снова и снова…
Качество исходника: BDRemux (NNMClub)
Качество: BDRip
Тип: HD (720p)
Контейнер: M4V
Видео: H.264, 1280x544, 2.35:1, 3 500 Kbps, 23.976 fps

Аудио 1: Русский/Дублированный (iTunes), AAC / 2.0 / 160 Kbps / 48.0 KHz
Аудио 2: Английский/Оригинальная дорожка , AAC / 2.0 / 160 Kbps / 48.0 KHz
Аудио 3: Русский/Дублированный (iTunes), AC-3 / 5.1 / 384 Kbps / 48.0 KHz
Аудио 4: Английский/Оригинальная дорожка , AC-3 / 5.1 / 640 Kbps / 48.0 KHz

Субтитры: Английские полные
Sort Name: Happy Death Day
XID: Apple:vendor_id:2017-1012421
contentID: 1288841123
Copyright: © 2017 Universal Studios. All Rights Reserved.
Screenwriters: Скотт Лобделл
Producers: Джон Балдеччи, Джейсон Блум, Филлип Дейв
Director: Кристофер Лэндон
Cast: Джессика Рот, Израэль Бруссар, Руби Модин, Чарльз Эйткин, Лаура Клифтон, Джейсон Бэйл, Роб Мелло, Рэйчел Мэттьюз, Рэмси Андерсон, Брэйди Льюис
Studio: Universal Pictures
Rating: 4
Long Description: Каждый в универе мечтал попасть на её день рождения, но праздник был безнадежно испорчен незнакомцем в маске, убившим виновницу торжества. Однако судьба преподнесла имениннице леденящий душу подарок — бесконечный запас жизней. И теперь у девушки появился шанс вычислить своего убийцу, ведь этот день будет повторяться снова и снова…
Description: Каждый в универе мечтал попасть на её день рождения, но праздник был безнадежно испорчен незнакомцем в маске, убившим виновницу торжества. Однако судьба преподнесла имениннице леденящий душу подарок — бесконечный запас жизней.
Release Date: 2017-10-13T07:00:00Z
Genre: Thriller
Artist: Christopher Landon
Name: Happy Death Day
General
Complete name : /Users/imac/HandBrake/Happy Death Day (720p HD).m4v
Format : MPEG-4
Codec ID : M4V
File size : 3.25 GiB
Duration : 1h 36mn
Overall bit rate mode : Variable
Overall bit rate : 4 843 Kbps
Movie name : Happy Death Day
Performer : Christopher Landon
Director : Кристофер Лэндон
Actor : Джессика Рот / Израэль Бруссар / Руби Модин / Чарльз Эйткин / Лаура Клифтон / Джейсон Бэйл / Роб Мелло / Рэйчел Мэттьюз / Рэмси Андерсон / Брэйди Льюис
Screenplay by : Скотт Лобделл
Producer : Джон Балдеччи / Джейсон Блум / Филлип Дейв
Production studio : Universal Pictures
Genre : Thriller
ContentType : Short Film
Description : Каждый в универе мечтал попасть на её день рождения, но праздник был безнадежно испорчен незнакомцем в маске, убившим виновницу торжества. Однако судьба преподнесла имениннице леденящий душу подарок — бесконечный запас жизней.
Recorded date : UTC 2017-10-13 07:00:00
Encoded date : UTC 2018-02-10 14:45:32
Tagged date : UTC 2018-02-10 14:46:55
Copyright : © 2017 Universal Studios. All Rights Reserved.
Cover : Yes
Rating : None
Title/Sort : Happy Death Day
LongDescription : Каждый в универе мечтал попасть на её день рождения, но праздник был безнадежно испорчен незнакомцем в маске, убившим виновницу торжества. Однако судьба преподнесла имениннице леденящий душу подарок — бесконечный запас жизней. И теперь у девушки появился шанс вычислить своего убийцу, ведь этот день будет повторяться снова и снова…
HDVideo : Yes
AppleStoreCatalogID : 1288841123
Vendor : Apple:vendor_id:2017-1012421
ContentRating : mpaa|PG-13|300|

Video #1
ID : 1
Format : AVC
Format/Info : Advanced Video Codec
Format profile : [email protected]
Format settings, CABAC : No
Format settings, ReFrames : 3 frames
Codec ID : avc1
Codec ID/Info : Advanced Video Coding
Duration : 1h 36mn
Source duration : 1h 36mn
Bit rate : 3 500 Kbps
Width : 1 280 pixels
Height : 544 pixels
Display aspect ratio : 2.35:1
Frame rate mode : Variable
Frame rate : 23.976 fps
Minimum frame rate : 23.974 fps
Maximum frame rate : 23.981 fps
Color space : YUV
Chroma subsampling : 4:2:0
Bit depth : 8 bits
Scan type : Progressive
Bits/(Pixel*Frame) : 0.210
Stream size : 2.35 GiB (72%)
Source stream size : 2.35 GiB (72%)
Title : Main Program
Writing library : x264 core 148 r2708 86b7198
Encoding settings : cabac=0 / ref=3 / deblock=1:-3:-3 / analyse=0x3:0x113 / me=umh / subme=9 / psy=1 / psy_rd=1.00:0.15 / mixed_ref=1 / me_range=32 / chroma_me=1 / trellis=0 / 8x8dct=1 / cqm=0 / deadzone=21,11 / fast_pskip=0 / chroma_qp_offset=-2 / threads=17 / lookahead_threads=1 / sliced_threads=0 / nr=0 / decimate=0 / interlaced=0 / bluray_compat=0 / constrained_intra=0 / bframes=3 / b_pyramid=0 / b_adapt=2 / b_bias=0 / direct=1 / weightb=0 / open_gop=0 / weightp=0 / keyint=240 / keyint_min=24 / scenecut=40 / intra_refresh=0 / rc_lookahead=40 / rc=2pass / mbtree=1 / bitrate=3500 / ratetol=1.0 / qcomp=0.65 / qpmin=0 / qpmax=69 / qpstep=4 / cplxblur=20.0 / qblur=0.5 / vbv_maxrate=9500 / vbv_bufsize=9500 / nal_hrd=none / filler=0 / ip_ratio=1.40 / aq=1:1.10
Language : English
Encoded date : UTC 2018-02-10 14:45:32
Tagged date : UTC 2018-02-10 14:45:38
Color range : Limited
Color primaries : BT.709
Transfer characteristics : BT.709
Matrix coefficients : BT.709

Video #2
ID : 8
Format : JPEG
Codec ID : jpeg
Duration : 1h 36mn
Bit rate mode : Variable
Bit rate : 837 bps
Width : 640 pixels
Height : 272 pixels
Display aspect ratio : 2.35:1
Frame rate mode : Variable
Frame rate : 0.003 fps
Minimum frame rate : 0.002 fps
Maximum frame rate : 0.006 fps
Color space : YUV
Chroma subsampling : 4:2:0
Bit depth : 8 bits
Compression mode : Lossy
Bits/(Pixel*Frame) : 1.603
Stream size : 681 KiB (0%)
Title : Chapter Images
Language : English
Encoded date : UTC 2018-02-10 14:45:55
Tagged date : UTC 2018-02-10 14:45:55

Audio #1
ID : 2
Format : AAC
Format/Info : Advanced Audio Codec
Format profile : LC
Codec ID : 40
Duration : 1h 36mn
Source duration : 1h 36mn
Bit rate mode : Variable
Bit rate : 157 Kbps
Maximum bit rate : 242 Kbps
Channel(s) : 2 channels
Channel positions : Front: L R
Sampling rate : 48.0 KHz
Compression mode : Lossy
Stream size : 108 MiB (3%)
Source stream size : 108 MiB (3%)
Title : Russian Stereo
Language : Russian
Encoded date : UTC 2018-02-10 14:45:32
Tagged date : UTC 2018-02-10 14:45:50

Audio #2
ID : 3
Format : AAC
Format/Info : Advanced Audio Codec
Format profile : LC
Codec ID : 40
Duration : 1h 36mn
Source duration : 1h 36mn
Bit rate mode : Variable
Bit rate : 158 Kbps
Maximum bit rate : 255 Kbps
Channel(s) : 2 channels
Channel positions : Front: L R
Sampling rate : 48.0 KHz
Compression mode : Lossy
Stream size : 109 MiB (3%)
Source stream size : 109 MiB (3%)
Title : English Stereo
Language : English
Encoded date : UTC 2018-02-10 14:45:32
Tagged date : UTC 2018-02-10 14:45:50

Audio #3
ID : 4
Format : AC-3
Format/Info : Audio Coding 3
Mode extension : CM (complete main)
Format settings, Endianness : Big
Codec ID : ac-3
Duration : 1h 36mn
Bit rate mode : Constant
Bit rate : 384 Kbps
Channel(s) : 6 channels
Channel positions : Front: L C R, Side: L R, LFE
Sampling rate : 48.0 KHz
Bit depth : 16 bits
Compression mode : Lossy
Stream size : 264 MiB (8%)
Title : Russian DD 5.1
Language : Russian
Encoded date : UTC 2018-02-10 14:45:32
Tagged date : UTC 2018-02-10 14:45:50

Audio #4
ID : 5
Format : AC-3
Format/Info : Audio Coding 3
Mode extension : CM (complete main)
Format settings, Endianness : Big
Codec ID : ac-3
Duration : 1h 36mn
Bit rate mode : Constant
Bit rate : 640 Kbps
Channel(s) : 6 channels
Channel positions : Front: L C R, Side: L R, LFE
Sampling rate : 48.0 KHz
Bit depth : 16 bits
Compression mode : Lossy
Stream size : 440 MiB (13%)
Title : English DD 5.1
Language : English
Encoded date : UTC 2018-02-10 14:45:32
Tagged date : UTC 2018-02-10 14:45:50

Text
ID : 6
Format : Timed Text
Muxing mode : sbtl
Codec ID : tx3g
Duration : 1h 31mn
Bit rate mode : Variable
Bit rate : 60 bps
Stream size : 40.6 KiB (0%)
Title : English full
Language : English
Encoded date : UTC 2018-02-10 14:45:32
Tagged date : UTC 2018-02-10 14:45:49

Menu #1
00:00:00.000 : Chapter 1
00:04:54.461 : Chapter 2
00:10:26.000 : Chapter 3
00:14:10.683 : Chapter 4
00:21:46.722 : Chapter 5
00:25:08.799 : Chapter 6
00:29:37.859 : Chapter 7
00:33:09.321 : Chapter 8
00:37:50.143 : Chapter 9
00:41:45.336 : Chapter 10
00:44:54.192 : Chapter 11
00:53:07.935 : Chapter 12
00:57:28.362 : Chapter 13
01:00:18.448 : Chapter 14
01:07:41.558 : Chapter 15
01:12:16.290 : Chapter 16
01:16:35.091 : Chapter 17
01:21:17.081 : Chapter 18
01:27:13.645 : Chapter 19
01:30:24.169 : Chapter 20

Menu #2
ID : 7
Codec ID : text
Duration : 1h 36mn
Language : English
Encoded date : UTC 2018-02-10 14:45:50
Tagged date : UTC 2018-02-10 14:45:50
00:00:00.000 : Chapter 1
00:04:54.461 : Chapter 2
00:10:26.000 : Chapter 3
00:14:10.683 : Chapter 4
00:21:46.722 : Chapter 5
00:25:08.799 : Chapter 6
00:29:37.859 : Chapter 7
00:33:09.321 : Chapter 8
00:37:50.143 : Chapter 9
00:41:45.336 : Chapter 10
00:44:54.192 : Chapter 11
00:53:07.935 : Chapter 12
00:57:28.362 : Chapter 13
01:00:18.448 : Chapter 14
01:07:41.558 : Chapter 15
01:12:16.290 : Chapter 16
01:16:35.091 : Chapter 17
01:21:17.081 : Chapter 18
01:27:13.645 : Chapter 19
01:30:24.169 : Chapter 20
Bit rate mode : VBR
x264 [info]: frame I:1673  Avg QP:13.66  size:112767
x264 [info]: frame P:51041 Avg QP:16.28  size: 32631
x264 [info]: frame B:85660 Avg QP:18.04  size:  7787
x264 [info]: consecutive B-frames:  6.0% 23.5% 32.3% 38.2%
x264 [info]: mb I  I16..4:  8.8% 60.0% 31.1%
x264 [info]: mb P  I16..4:  2.5%  7.4%  3.3%  P16..4: 42.7% 26.3% 10.7%  0.0%  0.0%    skip: 7.1%
x264 [info]: mb B  I16..4:  0.2%  0.6%  0.3%  B16..8: 43.8% 11.6%  1.6%  direct: 3.6%  skip:38.2%  L0:40.9% L1:51.0% BI: 8.1%
x264 [info]: 8x8 transform intra:56.3% inter:43.2%
x264 [info]: coded y,uvDC,uvAC intra: 80.1% 84.7% 69.6% inter: 23.2% 23.2% 15.0%
x264 [info]: i16 v,h,dc,p: 48% 11%  6% 35%
x264 [info]: i8 v,h,dc,ddl,ddr,vr,hd,vl,hu: 10%  7%  6% 11% 15% 15% 13% 12% 10%
x264 [info]: i4 v,h,dc,ddl,ddr,vr,hd,vl,hu: 10%  7%  4% 13% 18% 17% 13% 11%  8%
x264 [info]: i8c dc,h,v,p: 52% 15% 20% 13%
x264 [info]: ref P L0: 72.6% 16.7% 10.7%
x264 [info]: ref B L0: 79.4% 20.6%
x264 [info]: kb/s:3494.70

Релиз подготовлен для просмотра на Apple TV, iPad, iPhone, iPod Touch.
Для просмотра данного релиза на компьютере с ОС Windows рекомендуется использовать VLC media player

Трекер:  [ 10-Фев-2018 18:12 ]

  

Скачать .torrent

Размер .torrent файла 33 KB


Размер: 3.25 GB
Хэш (hash) релиза: 573e1716c24ab5bf1da29f5408961cb709d0b8a1

Торренты, похожие на Счастливого дня смерти Happy Death Day скачать торрент

Форум Название Автор Размер S L Добавлен
Видео (iPhone/iPod Touch/iPad) ·· [ATV3] Счастливого дня смерти / Happy Death Day (Кристофер Лэндон / Christopher Landon ) [2017, США, Ужасы, триллер, детектив, комедия, BDRip, HD (1080p)] DUB + Original + sub (eng) Galfimbul 67369487346.27 GB 0 0 1518273752

17:42

10-Фев-18

Еще никто не оставлял запись к записи скачать торрент Счастливого дня смерти Happy Death Day . Будь первым!

!Обратная связь