Berlin Station | Better Call Saul | Better Things

Скачать через торрент Садистская смесь Blend S бесплатно Аниме Все серии на русском torrent

Статистика раздачи
Размер:  2.41 GB   |    Зарегистрирован:  4 месяца 11 дней   |    .torrent скачан:  11 раз   |   
Раздают:  1  
   
загрузка...
 
Автор Сообщение

Galfimbul

avatar Galfimbul



Год выпуска: 2018
Страна: Япония
Жанр: комедия, повседневность
Продолжительность: TV, 12 эп. по 25 мин.
Режиссер: Масуяма Рёдзи
Студия: A-1 Pictures
Выпуск: с 08.10.2017 по 24.12.2017
Описание:
Майка Сакураномия обычная школьница, которая пытается найти подработку, чтобы поехать обучаться за границу. Только вот девушке постоянно отказывают из-за её «особенного» взгляда... После очередного проваленного собеседования Майка, возвращаясь домой, натыкается на Дино, озабоченного темноволосыми девушками менеджера, который предлагает ей работу в кафе «Stile». Вот тут-то необычный взор Майки оказался совершенно кстати, ведь кафе Дино не обычное, а ролевое! И Майке в нём предстоит играть очень интересную роль.© Xxxsabx .
Информационные ссылки: AniDB || World Art || MAL
Качество: BDRip
Автор рипа: ReinForce
Тип релиза: Без хардсаба; без линковки; с главами
Формат видео: MKV
Видео: MPEG4(х264); 8 bit; 1920x1080; ~6000 Кбит/сек; 23.976 кадра/сек
Аудио JAP: FLAC; 48kHz; 2 канала; ~1400 Кбит/сек
Субтитры RUS: ASS; внешние; перевод: AniPlay
Субтитры RUS: переводчики: Капитан, Крысёнек, редакторы: Octupus, Бетельгейзе, Lokker
01. First-Time Super Sadist
02. Sweets Without Honor

03. After the Date, Rated R
04. The New Girl Is a Big Sister
05. Rainy and Then Windy
06. By the Waterfront Et Cetera (For Adults)
07. Busy with Bananas and Strawberries
08. An Idol Character, Too
09. Owner Inauguration, Sister Attack
10. I`ll Tell You
11. Good at Tsundere, Bad at Romantic Moves
12. I Love You!
Painy - BDRipBomuto - BDRip

GeneralUnique ID : 261632310822126401640874352393115641282 (0xC4D48CD8CDA6A6091122ED2258CBA5C2)Complete name : \Blend S [BDRip 1080p x264 FLAC]\[ReinForce] Blend S - 01 (BDRip 1920x1080 x264 FLAC).mkvFormat : MatroskaFormat version : Version 4 / Version 2File size : 1.24 GiBDuration : 23 min 41 sOverall bit rate mode : VariableOverall bit rate : 7 513 kb/sEncoded date : UTC 2018-02-09 20:00:21Writing application : mkvmerge v20.0.0 ('I Am The Sun') 64-bitWriting library : libebml v1.3.5 + libmatroska v1.4.8

VideoID : 1Format : AVCFormat/Info : Advanced Video CodecFormat profile : [email protected] settings, CABAC : YesFormat settings, RefFrames : 4 framesCodec ID : V_MPEG4/ISO/AVCDuration : 23 min 41 sBit rate : 6 095 kb/sWidth : 1 920 pixelsHeight : 1 080 pixelsDisplay aspect ratio : 16:9Frame rate mode : ConstantFrame rate : 23.976 (24000/1001) FPSColor space : YUVChroma subsampling : 4:2:0Bit depth : 8 bitsScan type : ProgressiveBits/(Pixel*Frame) : 0.123Stream size : 1.01 GiB (81%)Writing library : x264 core 152Encoding settings : opencl=1 / cabac=1 / ref=4 / deblock=1:-2:-2 / analyse=0x3:0x113 / me=umh / subme=9 / psy=1 / psy_rd=0.70:0.00 / mixed_ref=0 / me_range=32 / chroma_me=1 / trellis=2 / 8x8dct=1 / cqm=0 / deadzone=21,11 / fast_pskip=1 / chroma_qp_offset=-2 / threads=8 / lookahead_threads=1 / sliced_threads=0 / nr=0 / decimate=1 / interlaced=0 / bluray_compat=0 / constrained_intra=0 / bframes=9 / b_pyramid=2 / b_adapt=2 / b_bias=0 / direct=3 / weightb=1 / open_gop=0 / weightp=2 / keyint=250 / keyint_min=23 / scenecut=40 / intra_refresh=0 / rc_lookahead=40 / rc=crf / mbtree=1 / crf=16.0 / qcomp=0.70 / qpmin=10 / qpmax=20 / qpstep=4 / ip_ratio=1.40 / aq=1:1.00Default : YesForced : No

AudioID : 2Format : FLACFormat/Info : Free Lossless Audio CodecCodec ID : A_FLACDuration : 23 min 41 sBit rate mode : VariableBit rate : 1 416 kb/sChannel(s) : 2 channelsChannel positions : Front: L RSampling rate : 48.0 kHzFrame rate : 10.417 FPS (4608 SPF)Bit depth : 24 bitsStream size : 240 MiB (19%)Writing library : Lavf57.83.100Language : JapaneseDefault : YesForced : No

Выбор видео, перевода, осуществляется релизером и не подлежит обсуждению. Если вы считаете, что раздаваемый материал противоречит правилам раздела "Аниме" rutracker.org, сообщите об этом одному из модераторов раздела.
Данный релиз предназначен для просмотра на ПК. Воспроизведение на иных проигрывателях не гарантируется.
Данный релиз предназначен для просмотра с внешними субтитрами. Для просмотра нужно:

установить шрифты из папки "RUS Subs » Fonts";
скопировать файлы .ass из папки "RUS Subs" в одну папку с видео - плеер подгрузит их автоматически при открытии видео.

Если у вас возникли проблемы с просмотром, не связанные с описанным выше, сообщите о них автору раздачи посредством сообщения в теме или ЛС Horodep.


Трекер:  [ 10-Фев-2018 18:01 ]

  

Скачать .torrent

Размер .torrent файла 13 KB


Размер: 2.41 GB
Хэш (hash) релиза: feea69036b78ebdd7931d0d5d8063880e5328e55
Подписка на обновления:

Еще никто не оставлял запись к записи скачать торрент Садистская смесь Blend S . Будь первым!

!Обратная связь