Avengers: Infinity War | Sacн¡и S¡иgн ♫ | Hugh Jackman Filmleri

Скачать через торрент [ATV3] Счастливого дня смерти Happy Death Day бесплатно русская версия torrent активатор

Статистика раздачи
Размер:  6.27 GB   |    Зарегистрирован:  3 месяца 11 дней   |    .torrent скачан:  23 раза   |   
Раздают:  1  
   
загрузка...
 
Автор Сообщение

Galfimbul

avatar Galfimbul


Счастливого дня смерти / Happy Death Day
«Проснись. Отпразднуй день рождения. Умри. Повтори. Снова и снова...»

6.462 / 10 6.50 / 10
Год выпуска: 2017
Страна: США
Жанр: Ужасы, триллер, детектив, комедия
Продолжительность: 01:36:11

Перевод: Дублированный (iTunes)
Оригинальная аудиодорожка: Есть
Cубтитры: Английские
Режиссёр: Кристофер Лэндон
Сценарий: Скотт Лобделл
Продюсер: Джон Балдеччи, Джейсон Блум, Филлип Дейв
Оператор: Тоби Оливер
Композитор: Беар МакКрири
Художник: СиСи ДеСтефано, Мишель С. Хэрмон, Мэган МакЛафлин
Монтаж: Грегори Плоткин
В ролях: Джессика Рот, Израэль Бруссар, Руби Модин, Чарльз Эйткин, Лаура Клифтон, Джейсон Бэйл, Роб Мелло, Рэйчел Мэттьюз, Рэмси Андерсон, Брэйди Льюис

Бюджет: $4 800 000
Сборы в США: $55 683 845
Сборы в мире: + $62 200 000 = $117 883 845
Сборы в России: $3 279 911

Мировая премьера: 7 октября 2017
Премьера (РФ): 7 декабря 2017, «UPI»

Цифровой релиз: 01 февраля 2018, «Universal»

Описание: Каждый в универе мечтал попасть на её день рождения, но праздник был безнадежно испорчен незнакомцем в маске, убившим виновницу торжества. Однако судьба преподнесла имениннице леденящий душу подарок — бесконечный запас жизней. И теперь у девушки появился шанс вычислить своего убийцу, ведь этот день будет повторяться снова и снова…
Качество исходника: BDRemux (NNMClub)
Качество: BDRip
Тип: HD (1080p)
Контейнер: M4V
Видео: H.264, 1920x800, 2.40:1, 8 000 Kbps, 23.976 fps

Аудио 1: Русский/Дублированный (iTunes), AAC / 2.0 / 160 Kbps / 48.0 KHz
Аудио 2: Английский/Оригинальная дорожка , AAC / 2.0 / 160 Kbps / 48.0 KHz
Аудио 3: Русский/Дублированный (iTunes), AC-3 / 5.1 / 384 Kbps / 48.0 KHz
Аудио 4: Английский/Оригинальная дорожка , AC-3 / 5.1 / 640 Kbps / 48.0 KHz

Субтитры: Английские полные
Sort Name: Happy Death Day
XID: Apple:vendor_id:2017-1012421
contentID: 1288841123
Copyright: © 2017 Universal Studios. All Rights Reserved.
Screenwriters: Скотт Лобделл
Producers: Джон Балдеччи, Джейсон Блум, Филлип Дейв
Director: Кристофер Лэндон
Cast: Джессика Рот, Израэль Бруссар, Руби Модин, Чарльз Эйткин, Лаура Клифтон, Джейсон Бэйл, Роб Мелло, Рэйчел Мэттьюз, Рэмси Андерсон, Брэйди Льюис
Studio: Universal Pictures
Rating: 4
Long Description: Каждый в универе мечтал попасть на её день рождения, но праздник был безнадежно испорчен незнакомцем в маске, убившим виновницу торжества. Однако судьба преподнесла имениннице леденящий душу подарок — бесконечный запас жизней. И теперь у девушки появился шанс вычислить своего убийцу, ведь этот день будет повторяться снова и снова…
Description: Каждый в универе мечтал попасть на её день рождения, но праздник был безнадежно испорчен незнакомцем в маске, убившим виновницу торжества. Однако судьба преподнесла имениннице леденящий душу подарок — бесконечный запас жизней.
Release Date: 2017-10-13T07:00:00Z
Genre: Thriller
Artist: Christopher Landon
Name: Happy Death Day
General
Complete name : /Users/imac/HandBrake/Happy Death Day (1080p HD).m4v
Format : MPEG-4
Codec ID : M4V
File size : 6.27 GiB
Duration : 1h 36mn
Overall bit rate mode : Variable
Overall bit rate : 9 338 Kbps
Movie name : Happy Death Day
Performer : Christopher Landon
Director : Кристофер Лэндон
Actor : Джессика Рот / Израэль Бруссар / Руби Модин / Чарльз Эйткин / Лаура Клифтон / Джейсон Бэйл / Роб Мелло / Рэйчел Мэттьюз / Рэмси Андерсон / Брэйди Льюис
Screenplay by : Скотт Лобделл
Producer : Джон Балдеччи / Джейсон Блум / Филлип Дейв
Production studio : Universal Pictures
Genre : Thriller
ContentType : Short Film
Description : Каждый в универе мечтал попасть на её день рождения, но праздник был безнадежно испорчен незнакомцем в маске, убившим виновницу торжества. Однако судьба преподнесла имениннице леденящий душу подарок — бесконечный запас жизней.
Recorded date : UTC 2017-10-13 07:00:00
Encoded date : UTC 2018-02-10 14:08:25
Tagged date : UTC 2018-02-10 14:10:27
Copyright : © 2017 Universal Studios. All Rights Reserved.
Cover : Yes
Rating : None
Title/Sort : Happy Death Day
LongDescription : Каждый в универе мечтал попасть на её день рождения, но праздник был безнадежно испорчен незнакомцем в маске, убившим виновницу торжества. Однако судьба преподнесла имениннице леденящий душу подарок — бесконечный запас жизней. И теперь у девушки появился шанс вычислить своего убийцу, ведь этот день будет повторяться снова и снова…
AppleStoreCatalogID : 1288841123
Vendor : Apple:vendor_id:2017-1012421
ContentRating : mpaa|PG-13|300|

Video #1
ID : 1
Format : AVC
Format/Info : Advanced Video Codec
Format profile : [email protected]
Format settings, CABAC : Yes
Format settings, ReFrames : 4 frames
Codec ID : avc1
Codec ID/Info : Advanced Video Coding
Duration : 1h 36mn
Source duration : 1h 36mn
Bit rate : 8 000 Kbps
Width : 1 920 pixels
Height : 800 pixels
Display aspect ratio : 2.40:1
Frame rate mode : Variable
Frame rate : 23.976 fps
Minimum frame rate : 23.974 fps
Maximum frame rate : 23.981 fps
Color space : YUV
Chroma subsampling : 4:2:0
Bit depth : 8 bits
Scan type : Progressive
Bits/(Pixel*Frame) : 0.217
Stream size : 5.37 GiB (86%)
Source stream size : 5.37 GiB (86%)
Title : Main Program
Writing library : x264 core 148 r2708 86b7198
Encoding settings : cabac=1 / ref=4 / deblock=1:-2:-2 / analyse=0x3:0x133 / me=umh / subme=10 / psy=1 / psy_rd=1.00:0.15 / mixed_ref=1 / me_range=32 / chroma_me=1 / trellis=2 / 8x8dct=1 / cqm=0 / deadzone=21,11 / fast_pskip=1 / chroma_qp_offset=-3 / threads=25 / lookahead_threads=6 / sliced_threads=0 / nr=0 / decimate=0 / interlaced=0 / bluray_compat=0 / constrained_intra=0 / bframes=16 / b_pyramid=2 / b_adapt=2 / b_bias=0 / direct=3 / weightb=1 / open_gop=0 / weightp=2 / keyint=240 / keyint_min=24 / scenecut=40 / intra_refresh=0 / rc_lookahead=40 / rc=2pass / mbtree=1 / bitrate=8000 / ratetol=1.0 / qcomp=0.70 / qpmin=0 / qpmax=69 / qpstep=4 / cplxblur=20.0 / qblur=0.5 / ip_ratio=1.40 / aq=1:1.00
Language : English
Encoded date : UTC 2018-02-10 14:08:25
Tagged date : UTC 2018-02-10 14:08:36
Color range : Limited
Color primaries : BT.709
Transfer characteristics : BT.709
Matrix coefficients : BT.709

Video #2
ID : 8
Format : JPEG
Codec ID : jpeg
Duration : 1h 36mn
Bit rate mode : Variable
Bit rate : 826 bps
Width : 640 pixels
Height : 266 pixels
Display aspect ratio : 2.40:1
Frame rate mode : Variable
Frame rate : 0.003 fps
Minimum frame rate : 0.002 fps
Maximum frame rate : 0.006 fps
Color space : YUV
Chroma subsampling : 4:2:0
Bit depth : 8 bits
Compression mode : Lossy
Bits/(Pixel*Frame) : 1.617
Stream size : 672 KiB (0%)
Title : Chapter Images
Language : English
Encoded date : UTC 2018-02-10 14:08:44
Tagged date : UTC 2018-02-10 14:08:44

Audio #1
ID : 2
Format : AAC
Format/Info : Advanced Audio Codec
Format profile : LC
Codec ID : 40
Duration : 1h 36mn
Source duration : 1h 36mn
Bit rate mode : Variable
Bit rate : 157 Kbps
Maximum bit rate : 242 Kbps
Channel(s) : 2 channels
Channel positions : Front: L R
Sampling rate : 48.0 KHz
Compression mode : Lossy
Stream size : 108 MiB (2%)
Source stream size : 108 MiB (2%)
Title : Russian Stereo
Language : Russian
Encoded date : UTC 2018-02-10 14:08:25
Tagged date : UTC 2018-02-10 14:08:34

Audio #2
ID : 3
Format : AAC
Format/Info : Advanced Audio Codec
Format profile : LC
Codec ID : 40
Duration : 1h 36mn
Source duration : 1h 36mn
Bit rate mode : Variable
Bit rate : 158 Kbps
Maximum bit rate : 255 Kbps
Channel(s) : 2 channels
Channel positions : Front: L R
Sampling rate : 48.0 KHz
Compression mode : Lossy
Stream size : 109 MiB (2%)
Source stream size : 109 MiB (2%)
Title : English Stereo
Language : English
Encoded date : UTC 2018-02-10 14:08:25
Tagged date : UTC 2018-02-10 14:08:34

Audio #3
ID : 4
Format : AC-3
Format/Info : Audio Coding 3
Mode extension : CM (complete main)
Format settings, Endianness : Big
Codec ID : ac-3
Duration : 1h 36mn
Bit rate mode : Constant
Bit rate : 384 Kbps
Channel(s) : 6 channels
Channel positions : Front: L C R, Side: L R, LFE
Sampling rate : 48.0 KHz
Bit depth : 16 bits
Compression mode : Lossy
Stream size : 264 MiB (4%)
Title : Russian DD 5.1
Language : Russian
Encoded date : UTC 2018-02-10 14:08:25
Tagged date : UTC 2018-02-10 14:08:32

Audio #4
ID : 5
Format : AC-3
Format/Info : Audio Coding 3
Mode extension : CM (complete main)
Format settings, Endianness : Big
Codec ID : ac-3
Duration : 1h 36mn
Bit rate mode : Constant
Bit rate : 640 Kbps
Channel(s) : 6 channels
Channel positions : Front: L C R, Side: L R, LFE
Sampling rate : 48.0 KHz
Bit depth : 16 bits
Compression mode : Lossy
Stream size : 440 MiB (7%)
Title : English DD 5.1
Language : English
Encoded date : UTC 2018-02-10 14:08:25
Tagged date : UTC 2018-02-10 14:08:32

Text
ID : 6
Format : Timed Text
Muxing mode : sbtl
Codec ID : tx3g
Duration : 1h 31mn
Bit rate mode : Variable
Bit rate : 60 bps
Stream size : 40.6 KiB (0%)
Title : English full
Language : English
Encoded date : UTC 2018-02-10 14:08:25
Tagged date : UTC 2018-02-10 14:08:25

Menu #1
00:00:00.000 : Chapter 1
00:04:54.461 : Chapter 2
00:10:26.000 : Chapter 3
00:14:10.683 : Chapter 4
00:21:46.722 : Chapter 5
00:25:08.799 : Chapter 6
00:29:37.859 : Chapter 7
00:33:09.321 : Chapter 8
00:37:50.143 : Chapter 9
00:41:45.336 : Chapter 10
00:44:54.192 : Chapter 11
00:53:07.935 : Chapter 12
00:57:28.362 : Chapter 13
01:00:18.448 : Chapter 14
01:07:41.558 : Chapter 15
01:12:16.290 : Chapter 16
01:16:35.091 : Chapter 17
01:21:17.081 : Chapter 18
01:27:13.645 : Chapter 19
01:30:24.169 : Chapter 20

Menu #2
ID : 7
Codec ID : text
Duration : 1h 36mn
Language : English
Encoded date : UTC 2018-02-10 14:08:36
Tagged date : UTC 2018-02-10 14:08:36
00:00:00.000 : Chapter 1
00:04:54.461 : Chapter 2
00:10:26.000 : Chapter 3
00:14:10.683 : Chapter 4
00:21:46.722 : Chapter 5
00:25:08.799 : Chapter 6
00:29:37.859 : Chapter 7
00:33:09.321 : Chapter 8
00:37:50.143 : Chapter 9
00:41:45.336 : Chapter 10
00:44:54.192 : Chapter 11
00:53:07.935 : Chapter 12
00:57:28.362 : Chapter 13
01:00:18.448 : Chapter 14
01:07:41.558 : Chapter 15
01:12:16.290 : Chapter 16
01:16:35.091 : Chapter 17
01:21:17.081 : Chapter 18
01:27:13.645 : Chapter 19
01:30:24.169 : Chapter 20
Bit rate mode : VBR
x264 [info]: frame I:1045  Avg QP:14.27  size:222321
x264 [info]: frame P:34126 Avg QP:17.37  size: 70817
x264 [info]: frame B:103203 Avg QP:18.11  size: 30185
x264 [info]: consecutive B-frames:  4.6%  5.8% 10.7% 11.2% 17.4% 43.5%  4.3%  0.6%  0.5%  0.3%  0.2%  0.1%  0.1%  0.1%  0.1%  0.0%  0.5%
x264 [info]: mb I  I16..4: 11.9% 75.7% 12.4%
x264 [info]: mb P  I16..4:  2.9% 21.6%  1.4%  P16..4: 36.3% 18.0% 10.3%  0.4%  0.2%    skip: 9.0%
x264 [info]: mb B  I16..4:  0.2%  2.4%  0.1%  B16..8: 39.8% 11.3%  2.6%  direct: 8.0%  skip:35.6%  L0:44.5% L1:42.2% BI:13.3%
x264 [info]: 8x8 transform intra:83.5% inter:56.3%
x264 [info]: direct mvs  spatial:98.1% temporal:1.9%
x264 [info]: coded y,uvDC,uvAC intra: 84.7% 87.3% 73.8% inter: 30.7% 33.9% 16.6%
x264 [info]: i16 v,h,dc,p: 38% 11% 11% 40%
x264 [info]: i8 v,h,dc,ddl,ddr,vr,hd,vl,hu: 11%  8% 13%  9% 12% 12% 11% 12% 12%
x264 [info]: i4 v,h,dc,ddl,ddr,vr,hd,vl,hu: 11%  8%  5% 10% 16% 15% 13% 11% 11%
x264 [info]: i8c dc,h,v,p: 51% 17% 17% 15%
x264 [info]: Weighted P-Frames: Y:3.4% UV:2.7%
x264 [info]: ref P L0: 54.0% 10.0% 25.6%  9.8%  0.5%  0.0%
x264 [info]: ref B L0: 82.8% 14.3%  2.9%
x264 [info]: ref B L1: 93.5%  6.5%
x264 [info]: kb/s:7990.05

Релиз подготовлен для просмотра на Apple TV, iPad, iPhone, iPod Touch.
Для просмотра данного релиза на компьютере с ОС Windows рекомендуется использовать VLC media player

Трекер:  [ 10-Фев-2018 17:42 ]

  

Скачать .torrent

Размер .torrent файла 63 KB


Размер: 6.27 GB
Хэш (hash) релиза: cbffcf04ce7d0e602bc3f69bbe56fe889324ed88

Еще никто не оставлял запись к записи скачать торрент [ATV3] Счастливого дня смерти Happy Death Day . Будь первым!

!Обратная связь