Скачать через торрент Комната 13 Hotel 13 Фильм бесплатно в хорошем качестве torrent

Скачивайте на UnionPeer.org фильмы через торрент без регистрации. Новинки кино в хорошем качестве через торрент. На UnionPeer.org можно скачать через торрент фильмы 2014 и 2015 годов. Самые новые фильмы.

Скачать торрент Комната 13 Hotel 13 бесплатно через .torrent фильм мультфильм сериал

Если у вас наблюдаются проблемы со скриншотами, переходом по ссылками, скачиванием торрентов - проблемы в блокировщике рекламы AdBlock. #хорошегоДня!


Статистика раздачи
Размер:  17.87 GB   |    Зарегистрирован:  7 дней   |    .torrent скачан:  10 раз   |   
Раздают:  1  
   
Загрузка...
 
Автор Сообщение

Galfimbul

avatar Galfimbul


Комната 13 / Hotel 13

Год выпуска: 2012-2014
Страна: Германия
Жанр: Комедия, детский, семейный
Продолжительность: 121 х ~ 00:13:00

Перевод: Профессиональный (многоголосый закадровый) телеканал "Детский"
Субтитры: нет

Режиссёр: Деннис Ботс

В ролях: Патрик Баер, Карола Шнелль, Геррит Кляйн, Марсель Глауше, Питер Ноттмейер, Йорг Мокаддам, Илька Тейхмюллер, Ханна Шольц

Описание: Немецкий сериал «Комната 13» рассказывает о шести подростках, которые летом подрабатывают в красивом отеле на берегу моря. Том и Анна устраивают праздники для постояльцев, Фло работает помощником повара на кухне, Виктория исполняет любые пожелания гостей, а Джек и вовсе сын владельца отеля. Руководит же ими директор отеля Анна Лив. Однако не все так просто в этом отеле, ведь необычная комната номер 13 скрывает в себе тайны, связанные с загадочными часами и перемещениями во времени.

Ссылка на предыдущие и альтернативные раздачи:

Сэмпл: http://multi-up.com/968289

Качество: SATRip
Формат: AVI
Видео кодек: XviD
Аудио кодек: AC3
Видео: 704x400 (1.76:1), 25 fps, XviD build 50 ~1484 kbps avg, 0.21 bit/pixel
Аудио: 48 kHz, AC3 Dolby Digital, 2/0 (L,R) ch, ~192.00 kbps avg
General
Complete name : D:\Komnata.13.XviD.2012.SATRip.Generalfilm\01.avi
Format : AVI
Format/Info : Audio Video Interleave
File size : 151 MiB
Duration : 12mn 32s
Overall bit rate : 1 687 Kbps
Writing application : VirtualDubMod 1.5.10.3 | www.virtualdub-fr.org || (build 2550/release)
Writing library : VirtualDubMod build 2550/release

Video
ID : 0
Format : MPEG-4 Visual
Format profile : Advanced [email protected]
Format settings, BVOP : 2
Format settings, QPel : No
Format settings, GMC : No warppoints
Format settings, Matrix : Custom
Codec ID : XVID
Codec ID/Hint : XviD
Duration : 12mn 32s
Bit rate : 1 485 Kbps
Width : 704 pixels
Height : 400 pixels
Display aspect ratio : 16:9
Frame rate : 25.000 fps
Color space : YUV
Chroma subsampling : 4:2:0
Bit depth : 8 bits
Scan type : Progressive
Compression mode : Lossy
Bits/(Pixel*Frame) : 0.211
Stream size : 133 MiB (88%)
Writing library : XviD 1.2.1 (UTC 2008-12-04)

Audio
ID : 1
Format : AC-3
Format/Info : Audio Coding 3
Mode extension : CM (complete main)
Format settings, Endianness : Big
Codec ID : 2000
Duration : 12mn 32s
Bit rate mode : Constant
Bit rate : 192 Kbps
Channel(s) : 2 channels
Channel positions : Front: L R
Sampling rate : 48.0 KHz
Bit depth : 16 bits
Compression mode : Lossy
Stream size : 17.2 MiB (11%)
Alignment : Split accross interleaves
Interleave, duration : 40 ms (1.00 video frame)
Interleave, preload duration : 500 ms
Релиз от:

Трекер:  [ 10-Фев-2018 16:48 ]

  

Скачать .torrent

Размер .torrent файла 96 KB


Размер: 17.87 GB
Хэш (hash) релиза: 523bf417bde2ee416b9d51db998d9495f9955886
Подписка на обновления:

Еще никто не оставлял запись к записи скачать торрент Комната 13 Hotel 13 . Будь первым!

!Обратная связь