Watch movie
Imagesets

Скачать через торрент Секретные материалы The X-Files Фильм бесплатно в хорошем качестве torrent

Скачивайте на UnionPeer.org фильмы через торрент без регистрации. Новинки кино в хорошем качестве через торрент. На UnionPeer.org можно скачать через торрент фильмы 2014 и 2015 годов. Самые новые фильмы.

Скачать торрент Секретные материалы The X-Files бесплатно через .torrent фильм мультфильм сериал

Статистика раздачи
Размер:  6.12 GB   |    Зарегистрирован:  3 месяца 11 дней   |    .torrent скачан:  74 раза   |   
Раздают:  1  
   
загрузка...
 
Автор Сообщение

Galfimbul

avatar Galfimbul


Секретные материалы / The X-Files

Год выпуска: 2018
Страна: США
Жанр: мистика, фантастика, детектив, триллер
Продолжительность: 00:43:00

Перевод: Профессиональный (дублированный) ТВ-3

Режиссёр: Крис Картер, Дэрин Морган, Глен Морган

В ролях: Дэвид Духовны, Джиллиан Андерсон, Митч Пиледжи, Уильям Б. Дэвис, Робби Амелл, Том Брэйдвуд, Дин Хэглунд, Брюс Харвуд, Джоэл МакХэйл, Лорен Эмброуз

Описание: Никогда прежде они не были так близки к истине, но в игру вступил новый могущественный игрок. И вопросов стало еще больше. Скоро наши собственные технологии уничтожат мир, и Фокс Малдер и Дана Скалли пытаются с этим что-то сделать.

Сэмпл: http://multi-up.com/1186657
Предыдущие и альтернативные раздачи

Качество: WEB-DL 720p (Amazon)
Формат: MKV
Видео: MPEG-4 AVC / H264, 1280x720 (16:9), 23.976 fps, ~3000 kbps
Аудио: Russian, AC3, 48 kHz, 2 ch, 192 kbps
Аудио 2: English, ЕAC3, 48 kHz, 6 ch, 640 kbps
Субтитры: Русские форсированные, полные (vl_lev), английские

Реклама:
Отсутствует
1. Моя борьба III / My Struggle III
2. Это / This
3. Плюс один / Plus One
4. Потерянное искусство пота на лбу / The Lost Art of Forehead Sweat
5. Гули / Ghouli
6. Котёнок / Kitten
Общее
Уникальный идентификатор : 244250356677811065642469490194866826085 (0xB7C0E85782B7403D824AF74324F8EB65)
Полное имя : D:\The.X-Files.S11.720p.AMZN.WEB-DL.DUB[ТВ3]\The.X-Files.S11E01.My.Struggle.III.720p.AMZN.WEB-DL.DUB[ТВ3].mkv
Формат : Matroska
Версия формата : Version 4 / Version 2
Размер файла : 1,12 Гбайт
Продолжительность : 42 м. 4 с.
Режим общего битрейта : Переменный
Общий поток : 3814 Кбит/сек
Название фильма : Моя борьба III
Дата кодирования : UTC 2018-02-05 10:25:40
Программа кодирования : mkvmerge v18.0.0 ('Apricity') 32-bit
Библиотека кодирования : libebml v1.3.5 + libmatroska v1.4.8

Видео
Идентификатор : 1
Формат : AVC
Формат/Информация : Advanced Video Codec
Профиль формата : [email protected]
Настройки формата : CABAC / 5 Ref Frames
Параметр CABAC формата : Да
Параметр RefFrames формата : 5 кадров
Идентификатор кодека : V_MPEG4/ISO/AVC
Продолжительность : 42 м. 4 с.
Вид битрейта : Переменный
Битрейт : 2980 Кбит/сек
Максимальный битрейт : 4500 Кбит/сек
Ширина : 1280 пикселей
Высота : 720 пикселей
Соотношение сторон : 16:9
Режим частоты кадров : Постоянный
Частота кадров : 23,976 (24000/1001) кадра/сек
Цветовое пространство : YUV
Субдискретизация насыщенности : 4:2:0
Битовая глубина : 8 бит
Тип развёртки : Прогрессивная
Бит/(Пиксели*Кадры) : 0.135
Размер потока : 897 Мбайт (78%)
Default : Да
Forced : Нет
Цветовой диапазон : Limited
Основные цвета : BT.709
Характеристики трансфера : BT.709
Коэффициенты матрицы : BT.709

Аудио #1
Идентификатор : 2
Формат : AC-3
Формат/Информация : Audio Coding 3
Идентификатор кодека : A_AC3
Продолжительность : 42 м. 2 с.
Вид битрейта : Постоянный
Битрейт : 192 Кбит/сек
Каналы : 2 канала
Расположение каналов : Front: L R
Частота : 48,0 КГц
Частота кадров : 31,250 кадров/сек (1536 SPF)
Битовая глубина : 16 бит
Метод сжатия : С потерями
Размер потока : 57,7 Мбайт (5%)
Заголовок : AC3 2.0 @ 192 kbps - DUB, ТВ3
Язык : Russian
ServiceKind/String : Complete Main
Default : Да
Forced : Нет

Аудио #2
Идентификатор : 3
Формат : E-AC-3
Формат/Информация : Enhanced Audio Coding 3
Идентификатор кодека : A_EAC3
Продолжительность : 42 м. 4 с.
Вид битрейта : Постоянный
Битрейт : 640 Кбит/сек
Каналы : 6 каналов
Расположение каналов : Front: L C R, Side: L R, LFE
Частота : 48,0 КГц
Частота кадров : 187,500 кадров/сек (256 SPF)
Метод сжатия : С потерями
Размер потока : 193 Мбайт (17%)
Заголовок : E-AC3 5.1 @ 640 kbps - Original
Язык : English
ServiceKind/String : Complete Main
Default : Нет
Forced : Нет

Текст #1
Идентификатор : 4
Формат : UTF-8
Идентификатор кодека : S_TEXT/UTF8
Идентификатор кодека/Информация : UTF-8 Plain Text
Продолжительность : 31 м. 27 с.
Битрейт : 1 бит/сек
ElementCount : 7
Размер потока : 400 байт (0%)
Заголовок : Forced
Язык : Russian
Default : Да
Forced : Да

Текст #2
Идентификатор : 5
Формат : UTF-8
Идентификатор кодека : S_TEXT/UTF8
Идентификатор кодека/Информация : UTF-8 Plain Text
Продолжительность : 41 м. 24 с.
Битрейт : 103 бит/сек
ElementCount : 633
Размер потока : 31,5 Кбайт (0%)
Заголовок : Full
Язык : Russian
Default : Нет
Forced : Нет

Текст #3
Идентификатор : 6
Формат : UTF-8
Идентификатор кодека : S_TEXT/UTF8
Идентификатор кодека/Информация : UTF-8 Plain Text
Продолжительность : 41 м. 59 с.
Битрейт : 73 бит/сек
ElementCount : 702
Размер потока : 22,7 Кбайт (0%)
Заголовок : Full
Язык : English
Default : Нет
Forced : Нет
Внимание! Раздача ведётся путём добавления новых серий; при каждом добавлении создаётся новый торрент. Чтобы начать докачку новой серии, пользователям необходимо сделать следующее:
(1) остановить скачивание,
(2) удалить старый торрент у себя из клиента (старые серии удалять не надо),
(3) скачать новый торрент и запустить его у себя в клиенте вместо старого, при этом указать клиенту путь в старую папку куда и должно происходить скачивание новых серий.

Ваш клиент при этом должен произвести хеширование (проверку) старой папки (если не производит сам - помогите ему сделать это), и будет докачивать только те серии которых у вас ещё нет. Старые серии при этом не удаляются, а продолжают раздаваться!

Eсли вы уже удалили старые серии, то предотвратить повторную закачку старых серий можно, отжав галочку в соответствующих местах при запуске нового торрента. По возможности, желательно не удалять старые серии как можно дольше чтобы релизёр не столько продолжал раздавать старые серии, а смог сконцентрироваться на новых.


Трекер:  [ 10-Фев-2018 16:18 ]

  

Скачать .torrent

Размер .torrent файла 16 KB


Размер: 6.12 GB
Хэш (hash) релиза: 06d7d87bd3386ce07e0a5e6aa9cc27324d165a69
Подписка на обновления:

Еще никто не оставлял запись к записи скачать торрент Секретные материалы The X-Files . Будь первым!

!Обратная связь