Black Panther 2018 | Marcus Brown | Chip Eberhart

Скачать через торрент Преступление в фокусе Сезон: 1 Фильм бесплатно в хорошем качестве torrent

Скачивайте на UnionPeer.org фильмы через торрент без регистрации. Новинки кино в хорошем качестве через торрент. На UnionPeer.org можно скачать через торрент фильмы 2014 и 2015 годов. Самые новые фильмы.

Скачать торрент Преступление в фокусе Сезон: 1 бесплатно через .torrent фильм мультфильм сериал

Статистика раздачи
Размер:  2.58 GB   |    Зарегистрирован:  3 месяца 15 дней   |    .torrent скачан:  74 раза   |   
Раздают:  1  
   
загрузка...
 
Автор Сообщение

Galfimbul

avatar Galfimbul


Преступление в фокусе
Год выпуска: 2014
Производство: «Star Media»
Жанр: Криминальный фильм, мелодрама
Продолжительность: ~ 43 мин.
Субтитры: Отсутствуют
Режиссер: Анатолий Григорьев
В ролях: Александр Давыдов (V), Ольга Олексий, Виталий Линецкий, Анатолий Ященко, Наталия Васько, Андрей Саминин, Леся Самаева, Ольга Когут, Майя Кузьмишина, Алина Гроссу, Николай Боклан, Андрей Мостренко, Роман Чёрный, Евгений Ефремов (II) и др.
Описание: Модный столичный фотограф Алекс снимал все сливки столичной жизни. Слава, деньги, обожание женщин. Его жизнь пошла под откос после случайного кадра в парке. За Алексом началась настоящая охота. Чудом Алексу удалось бежать от бандитов. Его спасла простая девушка Катя. Благодаря ей, Алекс по-новому взглянул на жизнь. У него появились силы посмотреть опасности в лицо и одолеть преступников.
Релиз группы
Семпл
Кино-Театр
Качество: WEBRip
Формат: AVI
Видео кодек: XviD
Аудио кодек: AC3
Видео: 720x400 (1.80:1), 25 fps, XviD build 73 ~1899 kbps avg, 0.26 bit/pixel
Аудио: 48 kHz, AC3 Dolby Digital, 2/0 (L,R) ch, ~192.00 kbps avg
Общее
Уникальный идентификатор                 : 196477850355522112146109704916908778716 (0x93D041EE3286E315BC2407BBC97E24DC)
Полное имя                               : D:\Торрент\После\Prestuplenie.v.Fokuse.2014.WEB-DL.(1080p).MediaClub\Prestuplenie.v.Fokuse.(01.seriya.iz.04).2014.WEB-DL.(1080p).MediaClub.mkv
Формат                                   : Matroska
Версия формата                           : Version 2
Размер файла                             : 890 Мбайт
Продолжительность                        : 43 м. 21 с.
Общий поток                              : 2871 Кбит/сек
Название фильма                          : Prestuplenie.v.Fokuse.(01.seriya.iz.04).2014.WEB-DL.(1080p).MediaClub
Дата кодирования                         : UTC 2014-11-09 08:13:53
Программа кодирования                    : mkvmerge v5.8.0 ('No Sleep / Pillow') built on Sep  2 2012 15:37:04
Библиотека кодирования                   : libebml v1.2.3 + libmatroska v1.3.0

Видео
Идентификатор                            : 1
Формат                                   : AVC
Формат/Информация                        : Advanced Video Codec
Профиль формата                          : [email protected]
Настройки формата                        : CABAC / 3 Ref Frames
Параметр CABAC формата                   : Да
Параметр RefFrames формата               : 3 кадра
Идентификатор кодека                     : V_MPEG4/ISO/AVC
Продолжительность                        : 43 м. 21 с.
Битрейт                                  : 2622 Кбит/сек
Ширина                                   : 1920 пикселей
Высота                                   : 1080 пикселей
Соотношение сторон                       : 16:9
Режим частоты кадров                     : Постоянный
Частота кадров                           : 29,970 (30000/1001) кадров/сек
Цветовое пространство                    : YUV
Субдискретизация насыщенности            : 4:2:0
Битовая глубина                          : 8 бит
Тип развёртки                            : Прогрессивная
Бит/(Пиксели*Кадры)                      : 0.042
Размер потока                            : 813 Мбайт (91%)
Default                                  : Да
Forced                                   : Да

Аудио
Идентификатор                            : 2
Формат                                   : AC-3
Формат/Информация                        : Audio Coding 3
Идентификатор кодека                     : A_AC3
Продолжительность                        : 43 м. 21 с.
Вид битрейта                             : Постоянный
Битрейт                                  : 192 Кбит/сек
Каналы                                   : 2 канала
Расположение каналов                     : Front: L R
Частота                                  : 48,0 КГц
Частота кадров                           : 31,250 кадров/сек (1536 SPF)
Битовая глубина                          : 16 бит
Метод сжатия                             : С потерями
Размер потока                            : 59,5 Мбайт (7%)
Язык                                     : Russian
ServiceKind/String                       : Complete Main
Default                                  : Да
Forced                                   : Да
Видео
Идентификатор                            : 0
Формат                                   : MPEG-4 Visual
Профиль формата                          : Advanced [email protected]
Настройки формата                        : BVOP2 / Custom Matrix
Параметр BVOP формата                    : 2
Параметр QPel формата                    : Нет
Параметр GMC формата                     : Без точки перехода
Параметр матрицы формата                 : Выборочная
Идентификатор кодека                     : XVID
Идентификатор кодека/Подсказка           : XviD
Продолжительность                        : 43 м. 21 с.
Битрейт                                  : 1900 Кбит/сек
Ширина                                   : 720 пикселей
Высота                                   : 400 пикселей
Соотношение сторон                       : 16:9
Частота кадров                           : 25,000 кадров/сек
Цветовое пространство                    : YUV
Субдискретизация насыщенности            : 4:2:0
Битовая глубина                          : 8 бит
Тип развёртки                            : Прогрессивная
Метод сжатия                             : С потерями
Бит/(Пиксели*Кадры)                      : 0.264
Размер потока                            : 589 Мбайт (90%)
Библиотека кодирования                   : XviD 73

Аудио
Идентификатор                            : 1
Формат                                   : AC-3
Формат/Информация                        : Audio Coding 3
Идентификатор кодека                     : 2000
Продолжительность                        : 43 м. 21 с.
Вид битрейта                             : Постоянный
Битрейт                                  : 192 Кбит/сек
Каналы                                   : 2 канала
Расположение каналов                     : Front: L R
Частота                                  : 48,0 КГц
Частота кадров                           : 31,250 кадров/сек (1536 SPF)
Битовая глубина                          : 16 бит
Метод сжатия                             : С потерями
Размер потока                            : 59,5 Мбайт (9%)
Выравнивание                             : Разделение по промежуткам
Продолжительность промежутка             : 40  мс. (1,00 видеокадр)
Время предзагрузки промежутка            : 500  мс.
ServiceKind/String                       : Complete Main
<div class="sp-wrap">
<div class="sp-head folded">Доп.информация</div>
<div class="sp-body">В источнике частота кадров: 29,970 (30000/1001) кадров/сек, переделано в 25 fps.
Так же в источнике в начале присутствует рассыпание картинки

</div>
</div>

Трекер:  [ 10-Фев-2018 15:48 ]

  

Скачать .torrent

Размер .torrent файла 13 KB


Размер: 2.58 GB
Хэш (hash) релиза: 50ea534468ab408d0c7cdf4b22f58ba3bd093427
Подписка на обновления:

Еще никто не оставлял запись к записи скачать торрент Преступление в фокусе Сезон: 1 . Будь первым!

!Обратная связь