Lara Croft: Tomb Raider | Ciara - Sorry. | O Pestinha 3 Assistir O Pestinha 3 720p Dublado/Legendado Online A terceira parte da trilogia O Pestinha traz o endiabrado Junior em sua fase pré-adolescente. Ele está apaixonado por Tiffany, a garota mais popular e bonita da escola, que nem ao menos sabe que ele existe. O que ela sabe é que outros três garotos estão interessados nela e para Junior, endiabrado como sempre, ...

Скачать через торрент Раздолбай Фильм бесплатно в хорошем качестве torrent

Скачивайте на UnionPeer.org фильмы через торрент без регистрации. Новинки кино в хорошем качестве через торрент. На UnionPeer.org можно скачать через торрент фильмы 2014 и 2015 годов. Самые новые фильмы.

Скачать торрент Раздолбай бесплатно через .torrent фильм мультфильм сериал

Статистика раздачи
Размер:  1.46 GB   |    Зарегистрирован:  4 месяца 11 дней   |    .torrent скачан:  90 раз   |   
Раздают:  1  
   
загрузка...
 
Автор Сообщение

Galfimbul

avatar Galfimbul


Раздолбай

Жанр: Боевик, комедия
Год выпуска: 2011
Продолжительность: 01:20:46

Режиссёр: Валерий Ибрагимов

В ролях: Николай Кудряшов, Юлия Куваева, Олег Сидоров, Филипп Величко, Евгений Савчук, Валерий Ибрагимов, Петр Капица, Николай Калмыков, Евгений Маканов, Сергей Куваев, Анатолий Карнаухов, Сергей Козновский, Сергей Синцов, Дмитрий Бекман, Георгий Гашокин

Описание: Она владелица собственного бизнеса, амбициозна, самодостаточна и не замужем. Ее компания участвует в тендере за лакомый кусок земли. Столкнувшись с конкурентами, она ищет себе надежную охрану. Он водитель и охранник, хороший парень, но ему нельзя доверить никаких поручений, потому что главный герой… раздолбай. В разгар перепетий когда угрожает опасность именно он приходит ей на помощь.

Доп. информация:
Автор релиза -
Источник аудио и видео для рипа - HDTV 1080i TS - моя запись с канала Наш Детектив HD

Сэмпл: http://yadi.sk/i/coEAJxK83SGBmU

Рекламы нет!

Качество видео: HDTVRip
Формат видео: AVI

Видео: XviD, 720x400 (16:9), 25.000 fps, 2130 kbps, 0.296 bit/pixel
Аудио: Русский AC3, 48000 Гц, 6ch, 448 kbps
ОбщееПолное имя : D:\Раздолбай.2011.HDTVRip-ylnian.aviФормат : AVIФормат/Информация : Audio Video InterleaveРазмер файла : 1,46 ГбайтПродолжительность : 1 ч. 20 м.Общий поток : 2588 Кбит/секПрограмма кодирования : VirtualDubMod 1.5.10.2 (build 2540/release)Библиотека кодирования : VirtualDubMod build 2540/release

ВидеоИдентификатор : 0Формат : MPEG-4 VisualПрофиль формата : Advanced [email protected]Настройки формата : BVOP1Параметр BVOP формата : 1Параметр QPel формата : НетПараметр GMC формата : Без точки переходаПараметр матрицы формата : Default (MPEG)Идентификатор кодека : XVIDИдентификатор кодека/Подсказка : XviDПродолжительность : 1 ч. 20 м.Битрейт : 2130 Кбит/секШирина : 720 пикселейВысота : 400 пикселейСоотношение сторон : 16:9Частота кадров : 25,000 кадров/секЦветовое пространство : YUVСубдискретизация насыщенности : 4:2:0Битовая глубина : 8 битТип развёртки : ПрогрессивнаяМетод сжатия : С потерямиБит/(Пиксели*Кадры) : 0.296Размер потока : 1,20 Гбайт (82%)Библиотека кодирования : XviD 67

АудиоИдентификатор : 1Формат : AC-3Формат/Информация : Audio Coding 3Идентификатор кодека : 2000Продолжительность : 1 ч. 20 м.Вид битрейта : ПостоянныйБитрейт : 448 Кбит/секКаналы : 6 каналовРасположение каналов : Front: L C R, Side: L R, LFEЧастота : 48,0 КГцЧастота кадров : 31,250 кадров/сек (1536 SPF)Битовая глубина : 16 битМетод сжатия : С потерямиРазмер потока : 259 Мбайт (17%)Выравнивание : Разделение по промежуткамПродолжительность промежутка : 40 мс. (1,00 видеокадр)Время предзагрузки промежутка : 500 мс.ServiceKind/String : Complete Main
Сравнение скриншотов с DVDRip - http://screenshotcomparison.com/comparison/131419/picture:2 - в моём релизе выше чёткость и резкость


Трекер:  [ 10-Фев-2018 13:54 ]

  

Скачать .torrent

Размер .torrent файла 15 KB


Размер: 1.46 GB
Хэш (hash) релиза: dca0b1998476dce7de28673084675d678259fab2
Подписка на обновления:

Торренты, похожие на Раздолбай скачать торрент

Форум Название Автор Размер S L Добавлен
Российские фильмы до 2016 ·· Раздолбай (Валерий Ибрагимов) [2011, Россия, Боевик, комедия, HDTV 1080i] Original Rus Galfimbul 48570140284.52 GB 0 0 1519088783

04:06

20-Фев-18

Зарубежные сериалы ·· Рейк / Раздолбай / Rake / Сезон: 4 / Серии: 1-8 из 8 (Питер Дункан, Роуэн Вудс, Питер Сэлмон) [2016, Австралия, драма, комедия, WEB-DL 1080p] DVO (kiitos) + VO (Михаил Чадов) + Original + Subs (Rus, Eng) Galfimbul 1881253523317.52 GB 0 0 1487553352

04:15

20-Фев-17

Зарубежные сериалы ·· Рейк / Раздолбай / Rake / Сезон: 4 / Серии: 1-8 из 8 (Питер Дункан, Роуэн Вудс, Питер Сэлмон) [2016, Австралия, драма, комедия, WEB-DL 1080p] DVO (kiitos.tv) + Original + Subs (Rus, Eng) Galfimbul 1817449318216.93 GB 0 0 1472517787

03:43

30-Авг-16

Зарубежные сериалы ·· Раздолбай / Рейк / Rake / Сезон: 4 / Серии: 1-7 из 8 (Peter Duncan, Andrew Knight) [2016, Австралия, драма, комедия, PDTVRip] Original + Rus Sub (izolenta, kahlan) Galfimbul 40343054473.76 GB 0 0 1469798300

16:18

29-Июл-16

Зарубежные сериалы ·· Раздолбай / Рейк / Rake, Сезон: 4 (4) / Серии: 1-7 из 8 (Peter Duncan, Andrew Knight) [2016, драма, комедия, HDTVRip] Original + Rus Sub Galfimbul 35737319663.33 GB 0 0 1469441753

13:15

25-Июл-16

Зарубежные сериалы ·· Раздолбай / Рейк / Rake, Сезон: 4 (4) / Серии: 1-6 из 8 (Peter Duncan, Andrew Knight) [2016, драма, комедия, HDTVRip] Original + Rus Sub Galfimbul 28972050882.7 GB 0 0 1468082830

19:47

9-Июл-16

Зарубежные сериалы ·· Раздолбай / Рейк / Rake, Сезон: 4 (4) / Серии: 1-5 из 8 (Peter Duncan, Andrew Knight) [2016, драма, комедия, HDTVRip] Original + Rus Sub Galfimbul 24462714982.28 GB 0 0 1467613518

09:25

4-Июл-16

Зарубежные сериалы ·· Раздолбай / Рейк / Rake, Сезон: 4 (4) / Серии: 1-4 из 8 (Peter Duncan, Andrew Knight) [2016, драма, комедия, HDTVRip] Original + Rus Sub Galfimbul 19810582561.85 GB 0 0 1466237962

11:19

18-Июн-16

Зарубежные сериалы ·· Раздолбай / Рейк / Rake, Сезон: 4 (4) / Серии: 1-2 из 8 (Peter Duncan, Andrew Knight) [2016, драма, комедия, HDTVRip] Original + Rus Sub Galfimbul 15271486471.42 GB 0 0 1465707280

07:54

12-Июн-16

Зарубежные сериалы ·· Раздолбай / Рейк / Rake, Сезон: 4 (4) / Серии: 1-2 из 8 (Peter Duncan, Andrew Knight) [2016, драма, комедия, HDTVRip] Original + Rus Sub Galfimbul 10763911201 GB 0 0 1464758412

08:20

1-Июн-16

Зарубежные сериалы ·· Раздолбай / Рейк / Rake, Сезон: 4 (4) / Серии: 1 из 8 (Peter Duncan, Andrew Knight) [2016, драма, комедия, HDTVRip] Original + Rus Sub Galfimbul 662698425632 MB 0 0 1464085739

13:28

24-Май-16

Зарубежные сериалы ·· Раздолбай / Rake / Сезон: 2 (2) / Серии: 1-8 из 8 (Peter Duncan) [2012, драма, комедия, PDTVRip-AVC] Original + Rus Subs (Кэленен, izolenta) Galfimbul 30635400152.85 GB 0 0 1374244296

17:31

19-Июл-13

Российские фильмы до 2016 ·· Раздолбай (Валерий Ибрагимов) [2011, Россия, Боевик, комедия, DVDRip] [лицензия] L 14680842241.37 GB 0 0 1330491900

08:05

29-Фев-12

Российские фильмы до 2016 ·· Раздолбай (Валерий Ибрагимов) [2011, Боевик, комедия, SATRip] Galfimbul 733583360700 MB 0 0 1324244427

00:40

19-Дек-11

Еще никто не оставлял запись к записи скачать торрент Раздолбай . Будь первым!

!Обратная связь