Zufällige Episode | Mythica: A Quest For Heroes | South Korea

Скачать через торрент Хладнокровный Ходзуки бесплатно Аниме Все серии на русском torrent

Статистика раздачи
Размер:  6.32 GB   |    Зарегистрирован:  4 месяца 11 дней   |    .torrent скачан:  31 раз   |   
Раздают:  1  
   
загрузка...
 
Автор Сообщение

Galfimbul

avatar Galfimbul


Хладнокровный Ходзуки / Hoozuki no Reitetsu (2017) / Hozuki's Coolheadedness 2
Страна:
Год выпуска: 2017
Жанр: комедия, фэнтези
Тип: TV
Продолжительность: 13 эп. по 23 мин.
Режиссер: Ёнэда Кадзухиро
Студия:

Описание:
Если вы думаете, что смерть способна решить все проблемы, то вы в корне ошибаетесь. В рай вы попадёте или же в ад, везде своих проблем предостаточно. Однако, речь в нашем аниме пойдёт именно про ад, ведь так куда интереснее. Про трудности простых смертных мы говорить не будем, у нас тут вопрос глобального масштаба. В аду перенаселение! Слишком уж много грешников развелось там, на поверхности, и теперь со всей этой оравой слишком трудно справляться. И никуда не денешь их, ведь ад - это уже последнее пристанище для человека.

История поведает нам о Ходзуки, главном заместителе Великого Короля преисподней Энмы. Он является правой рукой правителя и отвечает за наказание непослушных обитателей ада, отдаёт приказы демонам рангом ниже и так далее. В общем, жизнь у него крайне занятая, и с такой работой ему пришлось закалить свой характер, да и юмор приобрёл чёрный оттенок, хотя какой ещё юмор может быть в аду? Но, несмотря на его непростой нрав, у Ходзуки есть друзья, каждый из которых с превеликим удовольствием добавляет в жизнь главного заместителя больше экшена, шума и приключений!
Доп. информация: AniDB || World Art || MAL
Качество: HDTVRip
Тип релиза: Без хардсаба
Формат видео: MP4
Наличие линковки: Нет
Релиз/Автор рипа: [Leopard-Raws]
Видео: AVC, 1280х720, 2 977 kb/s, 23.976 FPS, 8 bits
Аудио: AAC, 192 kb/s, 48.0 kHz, 2 channels
Субтитры: ASS, внешние
Перевод: naive
General
Complete name                  : G:\L\[Leopard-Raws] Hoozuki no Reitetsu 2 (BS11 1280x720 x264 AAC)\[Leopard-Raws] Hoozuki no Reitetsu 2 - 04 RAW (BS11 1280x720 x264 AAC).mp4
Format                         : MPEG-4
Format profile                 : Base Media
Codec ID                       : isom (isom/avc1/iso6)
File size                      : 545 MiB
Duration                       : 23 min 59 s
Overall bit rate mode          : Variable
Overall bit rate               : 3 173 kb/s
Encoded date                   : UTC 2017-10-29 13:57:11
Tagged date                    : UTC 2017-10-29 13:57:11

Video
ID                             : 1
Format                         : AVC
Format/Info                    : Advanced Video Codec
Format profile                 : [email protected]
Format settings, CABAC         : Yes
Format settings, ReFrames      : 4 frames
Codec ID                       : avc1
Codec ID/Info                  : Advanced Video Coding
Duration                       : 23 min 59 s
Bit rate                       : 2 977 kb/s
Maximum bit rate               : 14.8 Mb/s
Width                          : 1 280 pixels
Height                         : 720 pixels
Display aspect ratio           : 16:9
Frame rate mode                : Constant
Frame rate                     : 23.976 (24000/1001) FPS
Color space                    : YUV
Chroma subsampling             : 4:2:0
Bit depth                      : 8 bits
Scan type                      : Progressive
Bits/(Pixel*Frame)             : 0.135
Stream size                    : 511 MiB (94%)
Title                          : 264:[email protected]
Writing library                : x264 core 129 r2245+729M 1a52e03
Encoding settings              : cabac=1 / ref=4 / deblock=1:1:-1 / analyse=0x3:0x113 / me=umh / subme=9 / psy=1 / fade_compensate=0.00 / psy_rd=1.00:0.00 / mixed_ref=1 / me_range=24 / chroma_me=1 / trellis=2 / 8x8dct=1 / cqm=0 / deadzone=21,11 / fast_pskip=1 / chroma_qp_offset=-2 / threads=8 / lookahead_threads=1 / sliced_threads=0 / nr=0 / decimate=1 / interlaced=0 / bluray_compat=0 / constrained_intra=0 / fgo=0 / bframes=9 / b_pyramid=2 / b_adapt=2 / b_bias=0 / direct=1 / weightb=1 / open_gop=0 / weightp=2 / keyint=240 / keyint_min=24 / scenecut=40 / intra_refresh=0 / rc=crf / mbtree=0 / crf=17.5 / qcomp=0.72 / qpmin=0 / qpmax=69 / qpstep=4 / ip_ratio=1.40 / pb_ratio=1.30 / aq=1:0.85
Encoded date                   : UTC 2017-10-29 13:57:11
Tagged date                    : UTC 2017-10-29 13:57:33
Color range                    : Limited
Color primaries                : BT.709
Transfer characteristics       : BT.709
Matrix coefficients            : BT.709

Audio
ID                             : 2
Format                         : AAC
Format/Info                    : Advanced Audio Codec
Format profile                 : LC
Codec ID                       : 40
Duration                       : 23 min 59 s
Bit rate mode                  : Variable
Bit rate                       : 192 kb/s
Maximum bit rate               : 221 kb/s
Channel(s)                     : 2 channels
Channel positions              : Front: L R
Sampling rate                  : 48.0 kHz
Frame rate                     : 46.875 FPS (1024 spf)
Compression mode               : Lossy
Stream size                    : 33.0 MiB (6%)
Language                       : Japanese
Encoded date                   : UTC 2017-10-28 18:59:21
Tagged date                    : UTC 2017-10-29 13:57:33
1 Ancient Underworld Overhaul / The Palace with the Malice
2 Hell Minion for a Day / The Line Between Workaholic and Artist
3 The Auspicious Alliance / Quirky Off-the-Wall Creatures
4 The Legend of Mustard / Please Turnip for the Demon Parade
5 Ono no Takamura / Stories of Great King Enma
6 Princess Sakuya`s Showtime / The Battle of Children`s Limbo
7 In Those Days We Were Angsty / Dr. Bird Head
8 Hopping Vampire
9 The Offices of Boring / Snow Demons
10 Kagachi`s Coolheadedness/ Married to His Work
11 Family / The Hounds of Hell
12 King Gokan`s Chief of Staff / Hell`s Hot Springs
13 Mistress of Hell / Have a Drink and Get Some Rest
...5463870 все серии


Трекер:  [ 10-Фев-2018 13:01 ]

  

Скачать .torrent

Размер .torrent файла 19 KB


Размер: 6.32 GB
Хэш (hash) релиза: 898ecccc3671c4b3ad0b04c00367c0fe37188ea4
Подписка на обновления:

Торренты, похожие на Хладнокровный Ходзуки скачать торрент

Форум Название Автор Размер S L Добавлен
Аниме | Rips ·· Хладнокровный Ходзуки (ОВА) / Hoozuki No Reitetsu [OVA] [серия 4 из 4] [Без хардсаба] [JAP, SUB] [2014, комедия, фэнтези, DVDRip] Galfimbul 250373743239 MB 0 0 1519497074

21:31

24-Фев-18

Аниме | HD Rips ·· Хладнокровный Ходзуки (ТВ-2) / Hoozuki no Reitetsu (2017) [TV] [01 из 13] [Без хардсаба] [JAP+SUB] [2017, комедия, фэнтези, HDTVRip] [720p] Galfimbul 613462275585 MB 0 0 1507500226

01:03

9-Окт-17

Аниме | Rips ·· Хладнокровный Ходзуки (ОВА) / Hoozuki No Reitetsu [OVA] [3 из 3] [Без хардсаба] [RUS(ext), JAP, SUB] [2014 г., комедия, фэнтези, DVDRip] Galfimbul 12288380711.14 GB 0 0 1465507721

00:28

10-Июн-16

Аниме | HD Rips ·· Хладнокровный Ходзуки (ТВ) / Hoozuki No Reitetsu [TV] [13 из 13] [Без хардсаба] [RUS(ext), JAP, SUB] [2014 г., комедия, фэнтези, BDRip] [1080p] Galfimbul 3636048516733.86 GB 0 0 1463942018

21:33

22-Май-16

Аниме | Rips ·· Хладнокровный Ходзуки ОВА / Hoozuki No Reitetsu OVA [OVA] [2 из 3] [Без хардсаба] [RUS(ext), JAP, SUB] [2014 г., комедия, фэнтези, DVDRip] Galfimbul 784829763748 MB 0 0 1457992904

01:01

15-Мар-16

Аниме | HD Rips ·· Хладнокровный Ходзуки / Hoozuki No Reitetsu [TV] [13 из 13] [Без хардсаба] [RUS(ext), JAP, SUB] [2014 г., комедия, фэнтези, BDRip] [1080p] Galfimbul 1706066371215.89 GB 0 0 1457991524

00:38

15-Мар-16

Аниме | HD Rips ·· Хладнокровный Ходзуки (ТВ) / Hoozuki no Reitetsu (Кабураки Хиро) [TV] [13 из 13] [без хардсаба] [RUS(ext), JAP+SUB] [2014 г., комедия, фэнтези, BDRip] [720p] Galfimbul 1180581650611 GB 0 0 1449609106

00:11

9-Дек-15

Аниме | HD Rips ·· Хладнокровный Ходзуки / Hoozuki no Reitetsu / Hozuki no Reitetsu / Cool-headed Hoozuki [TV] [1-13 из 13] [Без хардсаба] [JAP, SUB] [2014 г., комедия, фэнтези, BDRip] [1080p] Galfimbul 1614261232415.03 GB 0 0 1428412568

16:16

7-Апр-15

Аниме | HD Rips ·· Хладнокровный Ходзуки / Hoozuki no Reitetsu / Hozuki no Reitetsu / Cool-headed Hoozuki [TV] [1-13 из 13] [Без хардсаба] [JAP, SUB] [2014 г., комедия, фэнтези, BDRip] [720p] Galfimbul 56356300085.25 GB 0 0 1428412563

16:16

7-Апр-15

Аниме | Rips ·· Хладнокровный Ходзуки / Hoozuki no Reitetsu [TV] [8 из 13] [Без хардсаба] [RUS(int), JAP, SUB] [2014 г., комедия, фэнтези, HDTVRip] [720p] Galfimbul 29772577982.77 GB 0 0 1424286847

22:14

18-Фев-15

Аниме | HD Rips ·· Хладнокровный Ходзуки / Hozuki no Reitetsu / Hoozuki no Reitetsu [TV] [без хардсаба] [4 из 13] [JAP+SUB] [2014 г., комедия, фэнтези, HDTVRip] [720p] Polarnik 13358134931.24 GB 0 0 1393082494

18:21

22-Фев-14

Еще никто не оставлял запись к записи скачать торрент Хладнокровный Ходзуки . Будь первым!

!Обратная связь