Anne of Green Gables The Animated..
Anne Of Green Gables The Continuing..

Скачать через торрент Грэй-мен: Святые D.Gray-man Hallow бесплатно Аниме Все серии на русском torrent

Если у вас наблюдаются проблемы со скриншотами, переходом по ссылками, скачиванием торрентов - проблемы в блокировщике рекламы AdBlock. #хорошегоДня!


Статистика раздачи
Размер:  19.1 GB   |    Зарегистрирован:  12 дней   |    .torrent скачан:  13 раз   |   
Раздают:  1  
   
Загрузка...
 
Автор Сообщение

Galfimbul

avatar Galfimbul


Грэй-мен: Святые
D.Gray-man Hallow
Страна: Япония
Год выпуска: 2016 г.
Жанр: приключения, комедия, экшен
Продолжительность: 13 эп. по 24 мин
Режиссер: Асино Ёсихару
Студия: TMS
Перевод:

русские субтитры: [YakuSub Studio] (внешним файлом)
Переводчик: Nika_Elrik Редактор: Arashi-sama
[i]Описание: Сюжет разворачивается в альтернативной реальности 19-го века. Главный герой аниме — Тысячелетний граф, ведущий тотальное уничтожение мира с помощью механических демонов — Акума. Акума способны поглотить душу человека, Граф использует их для того, чтобы содержать в демонах неупокоенные души. Однако здесь есть маленький подвох: Граф делает это не из лучших побуждений, а в качестве личного интереса. Как только душа оказывается в Акума, она теряет свою принадлежность и владелец демона спокойно управляет действиями тела, отдавая ему приказы через робота. Экзорцисты ведут активную охоту на владельцев Акума, ведь подчинение души — серьезное преступление, на которое способен пойти только расчетливый человек.

Автор рипа: SOFCJ [SOFCJ-Raws], Urotsuki (фильтрация видео)
Тип релиза: Без хардсаба
Формат видео: mkv
Видео: AVC (x264), 10bit, 1920x1080, 23.976fps, ~8000 kbps
Аудио: AAC, 48000 Hz, 2ch, ~215 kbps
<div class="sp-wrap">
<div class="sp-head folded">[SOFCJ-Raws] D.Gray-man HALLOW - 01 (BS-J 1920x1080 x264 10bit AAC).mkv</div>
<div class="sp-body">

Complete name : [SOFCJ-Raws] D.Gray-man HALLOW - 01 (BS-J 1920x1080 x264 10bit AAC).mkvFormat : MatroskaFormat version : Version 4 / Version 2File size : 1.36 GiBDuration : 23 min 49 sOverall bit rate : 8 179 kb/sMovie name : [SOFCJ-Raws] D.Gray-man HALLOW - 01 (BS-J 1920x1080 x264 10bit AAC)Encoded date : UTC 2018-02-06 11:18:25Writing application : mkvmerge v8.3.0 ('Over the Horizon') 64bitWriting library : libebml v1.3.1 + libmatroska v1.4.2

VideoID : 1Format : AVCFormat/Info : Advanced Video CodecFormat profile : High [email protected] settings : CABAC / 4 Ref FramesFormat settings, CABAC : YesFormat settings, ReFrames : 4 framesCodec ID : V_MPEG4/ISO/AVCDuration : 23 min 49 sBit rate : 7 960 kb/sWidth : 1 920 pixelsHeight : 1 080 pixelsDisplay aspect ratio : 16:9Frame rate mode : ConstantFrame rate : 23.976 (24000/1001) FPSColor space : YUVChroma subsampling : 4:2:0Bit depth : 10 bitsScan type : ProgressiveBits/(Pixel*Frame) : 0.160Stream size : 1.32 GiB (97%)Title : [email protected] library : x264 core 152 r2851kMod ba24899Encoding settings : cabac=1 / ref=4 / deblock=1:1:-1 / analyse=0x3:0x133 / me=umh / subme=9 / psy=1 / fade_compensate=0.00 / psy_rd=1.00:0.00 / mixed_ref=1 / me_range=32 / chroma_me=1 / trellis=2 / 8x8dct=1 / cqm=0 / deadzone=21,11 / fast_pskip=1 / chroma_qp_offset=-2 / threads=12 / lookahead_threads=2 / sliced_threads=0 / nr=0 / decimate=1 / interlaced=0 / bluray_compat=0 / constrained_intra=0 / bframes=9 / b_pyramid=2 / b_adapt=2 / b_bias=0 / direct=1 / weightb=1 / open_gop=0 / weightp=2 / keyint=240 / keyint_min=23 / scenecut=40 / intra_refresh=0 / rc=crf / mbtree=0 / crf=16.0000 / qcomp=0.72 / qpmin=0 / qpmax=81 / qpstep=4 / ip_ratio=1.40 / pb_ratio=1.30 / aq=1:0.85Language : JapaneseDefault : YesForced : NoColor range : LimitedColor primaries : BT.709Transfer characteristics : BT.709Matrix coefficients : BT.709

AudioID : 2Format : AACFormat/Info : Advanced Audio CodecFormat profile : LCCodec ID : A_AAC-2Duration : 23 min 49 sBit rate : 217 kb/sChannel(s) : 2 channelsChannel positions : Front: L RSampling rate : 48.0 kHzFrame rate : 46.875 FPS (1024 SPF)Compression mode : LossyDelay relative to video : 9 msStream size : 36.9 MiB (3%)Title : [email protected] : JapaneseDefault : YesForced : No

Menu00:00:00.000 : en:Intro00:04:08.081 : en:OP00:05:35.752 : en:Part A00:11:42.702 : en:Eyecatch00:11:46.664 : en:Part B00:22:20.631 : en:ED00:23:34.622 : en:Preview
[spoiler="[SOFCJ-Raws] D.Gray-man HALLOW - 08 (BS-J 1920x1080 x264 10bit AAC).mkv"]

Complete name : [SOFCJ-Raws] D.Gray-man HALLOW - 08 (BS-J 1920x1080 x264 10bit AAC).mkvFormat : MatroskaFormat version : Version 4 / Version 2File size : 1.76 GiBDuration : 23 min 49 sOverall bit rate : 10.6 Mb/sMovie name : [SOFCJ-Raws] D.Gray-man HALLOW - 08 (BS-J 1920x1080 x264 10bit AAC)Encoded date : UTC 2018-02-06 11:29:14Writing application : mkvmerge v8.3.0 ('Over the Horizon') 64bitWriting library : libebml v1.3.1 + libmatroska v1.4.2

VideoID : 1Format : AVCFormat/Info : Advanced Video CodecFormat profile : High [email protected] settings : CABAC / 4 Ref FramesFormat settings, CABAC : YesFormat settings, ReFrames : 4 framesCodec ID : V_MPEG4/ISO/AVCDuration : 23 min 49 sBit rate : 10.3 Mb/sWidth : 1 920 pixelsHeight : 1 080 pixelsDisplay aspect ratio : 16:9Frame rate mode : ConstantFrame rate : 23.976 (24000/1001) FPSColor space : YUVChroma subsampling : 4:2:0Bit depth : 10 bitsScan type : ProgressiveBits/(Pixel*Frame) : 0.208Stream size : 1.72 GiB (98%)Title : [email protected] library : x264 core 152 r2851kMod ba24899Encoding settings : cabac=1 / ref=4 / deblock=1:1:-1 / analyse=0x3:0x133 / me=umh / subme=9 / psy=1 / fade_compensate=0.00 / psy_rd=1.00:0.00 / mixed_ref=1 / me_range=32 / chroma_me=1 / trellis=2 / 8x8dct=1 / cqm=0 / deadzone=21,11 / fast_pskip=1 / chroma_qp_offset=-2 / threads=12 / lookahead_threads=2 / sliced_threads=0 / nr=0 / decimate=1 / interlaced=0 / bluray_compat=0 / constrained_intra=0 / bframes=9 / b_pyramid=2 / b_adapt=2 / b_bias=0 / direct=1 / weightb=1 / open_gop=0 / weightp=2 / keyint=240 / keyint_min=23 / scenecut=40 / intra_refresh=0 / rc=crf / mbtree=0 / crf=16.0000 / qcomp=0.72 / qpmin=0 / qpmax=81 / qpstep=4 / ip_ratio=1.40 / pb_ratio=1.30 / aq=1:0.85Language : JapaneseDefault : YesForced : NoColor range : LimitedColor primaries : BT.709Transfer characteristics : BT.709Matrix coefficients : BT.709

AudioID : 2Format : AACFormat/Info : Advanced Audio CodecFormat profile : LCCodec ID : A_AAC-2Duration : 23 min 49 sBit rate : 214 kb/sChannel(s) : 2 channelsChannel positions : Front: L RSampling rate : 48.0 kHzFrame rate : 46.875 FPS (1024 SPF)Compression mode : LossyDelay relative to video : 9 msStream size : 36.5 MiB (2%)Title : [email protected] : JapaneseDefault : YesForced : No

Menu00:00:00.000 : en:Intro00:04:29.936 : en:OP00:05:59.901 : en:Part A00:12:34.920 : en:Eyecatch00:12:38.841 : en:Part B00:22:20.839 : en:ED00:23:34.871 : en:Preview
[/spoiler]
</div>
</div>
...5251258 - 1080p


Трекер:  [ 10-Фев-2018 12:01 ]

  

Скачать .torrent

Размер .torrent файла 99 KB


Размер: 19.1 GB
Хэш (hash) релиза: d8ee15a5200211deeebb976a901a8305ccf115fb
Подписка на обновления:

Торренты, похожие на Грэй-мен: Святые D.Gray-man Hallow скачать торрент

Форум Название Автор Размер S L Добавлен
Аниме | Rips ·· Ди Грэй-мен Святые / D.Gray-man Hallow [TV] [01-13 из 13] [Без хардсаба] [RUS(int), JAP, SUB] [2016, приключения, комедия, фэнтези, HDTVRip] [HWP] Galfimbul 43985106074.1 GB 0 0 1478124040

01:00

3-Ноя-16

Аниме | Rips ·· Грэй-мен: Святые / D.Gray-man Hallow [TV] [01-13 из 13] [Без хардсаба] [RUS(int), JAP, SUB] [2016, приключения, комедия, фэнтези, HDTVRip] [720p] [HD] Galfimbul 75553461557.04 GB 0 0 1477819085

12:18

30-Окт-16

Аниме | HD Rips ·· Ди Грэй-мен Святые / D.Gray-man Hallow [TV] [13 из 13] [без хардсаба] [JAP+SUB] [2016 г., приключения, комедия, экшен, HDTVRip] [720p] Galfimbul 57974529955.4 GB 0 0 1474979688

15:34

27-Сен-16

Аниме | Rips ·· Грэй-мен: Святые / D.Gray-man Hallow [TV] [01-10 из 13] [Без хардсаба] [RUS(int), JAP, SUB] [2016 г., приключения, комедия, фэнтези, HDTVRip] [720p] [HD] Galfimbul 59638413785.55 GB 0 0 1474812767

17:12

25-Сен-16

Аниме | HD Rips ·· Ди Грэй-мен Святые / D.Gray-man Hallow [TV] [1-12 из 13] [без хардсаба] [JAP+SUB] [2016 г., приключения, комедия, экшен, HDTVRip] [720p] Galfimbul 54258131785.05 GB 0 0 1474374510

15:28

20-Сен-16

Аниме | HD Rips ·· Ди Грэй-мен Святые / D.Gray-man Hallow [TV] [1-11 из 13] [без хардсаба] [JAP+SUB] [2016 г., приключения, комедия, экшен, HDTVRip] [720p] Galfimbul 49656363674.62 GB 0 0 1473773017

16:23

13-Сен-16

Аниме | Rips ·· Ди Грэй-мен Святые / D.Gray-man Hallow [TV] [01-07 из 13] [Без хардсаба] [RUS(int), JAP, SUB] [2016 г., приключения, комедия, фэнтези, HDTVRip] [HWP] Galfimbul 24340534772.27 GB 0 0 1473708803

22:33

12-Сен-16

Аниме | Rips ·· Грэй-мен: Святые / D.Gray-man Hallow [TV] [01-07 из 13] [Без хардсаба] [RUS(int), JAP, SUB] [2016 г., приключения, комедия, фэнтези, HDTVRip] [720p] [HD] Galfimbul 39556484383.68 GB 0 0 1473698130

19:35

12-Сен-16

Аниме | HD Rips ·· Ди Грэй-мен Святые / D.Gray-man Hallow [TV] [1-10 из 13] [без хардсаба] [JAP+SUB] [2016 г., приключения, комедия, экшен, HDTVRip] [720p] Galfimbul 45304203764.22 GB 0 0 1473181173

19:59

6-Сен-16

Аниме | HD Rips ·· Ди Грэй-мен Святые / D.Gray-man Hallow [TV] [1-9 из 13] [без хардсаба] [JAP+SUB] [2016 г., приключения, комедия, экшен, HDTVRip] [720p] Galfimbul 41207603893.84 GB 0 0 1472615907

06:58

31-Авг-16

Аниме | HD Rips ·· Ди Грэй-мен Святые / D.Gray-man Hallow [TV] [1-8 из 13] [без хардсаба] [JAP+SUB] [2016 г., приключения, комедия, экшен, HDTVRip] [720p] Galfimbul 35695724823.32 GB 0 0 1472026120

11:08

24-Авг-16

Аниме | HD Rips ·· Ди Грэй-мен Святые / D.Gray-man Hallow [TV] [1-7 из 13] [без хардсаба] [JAP+SUB] [2016 г., приключения, комедия, экшен, HDTVRip] [720p] Galfimbul 29871147982.78 GB 0 0 1471377660

23:01

16-Авг-16

Аниме | Rips ·· Ди Грэй-мен Святые / D.Gray-man Hallow [TV] [01-04 из 13] [Без хардсаба] [RUS(int), JAP, SUB] [2016 г., приключения, комедия, фэнтези, HDTVRip] [HWP] Galfimbul 13205497231.23 GB 0 0 1470713126

06:25

9-Авг-16

Аниме | HD Rips ·· Ди Грэй-мен Святые / D.Gray-man Hallow [TV] [1-6 из 13] [без хардсаба] [JAP+SUB] [2016 г., приключения, комедия, экшен, HDTVRip] [720p] Galfimbul 25239993822.35 GB 0 0 1470698841

02:27

9-Авг-16

Аниме | Rips ·· Ди Грэй-мен Святые / D.Gray-man Hallow [TV] [01-04 из 13] [Без хардсаба] [RUS(int), JAP, SUB] [2016 г., приключения, комедия, фэнтези, HDTVRip] [HWP] Galfimbul 13205428751.23 GB 0 0 1470633947

08:25

8-Авг-16

Аниме | Rips ·· Грэй-мен: Святые / D.Gray-man Hallow [TV] [01-04 из 13] [Без хардсаба] [RUS(int), JAP, SUB] [2016 г., приключения, комедия, фэнтези, HDTVRip] [720p] [HD] Galfimbul 22781692472.12 GB 0 0 1470530039

03:33

7-Авг-16

Аниме | HD Rips ·· Ди Грэй-мен Святые / D.Gray-man Hallow [TV] [1-5 из 13] [без хардсаба] [JAP+SUB] [2016 г., приключения, комедия, экшен, HDTVRip] [720p] Galfimbul 21048582401.96 GB 0 0 1470170177

23:36

2-Авг-16

Аниме | HD Rips ·· Ди Грэй-мен Святые / D.Gray-man Hallow [TV] [1-4 из 13] [без хардсаба] [JAP+SUB] [2016 г., приключения, комедия, экшен, HDTVRip] [720p] Galfimbul 16826617161.57 GB 0 0 1469546942

18:29

26-Июл-16

Аниме | Rips ·· Ди Грэй-мен Святые / D.Gray-man Hallow [TV] [01-03 из 13] [Без хардсаба] [RUS(int), JAP, SUB] [2016 г., приключения, комедия, фэнтези, HDTVRip] [HWP] Galfimbul 949634997906 MB 0 0 1469500592

05:36

26-Июл-16

Еще никто не оставлял запись к записи скачать торрент Грэй-мен: Святые D.Gray-man Hallow . Будь первым!

!Обратная связь