torrent

UnionPeer.org . . UnionPeer.org 2014 2015 . .

.torrent

, , - AdBlock. #!


1.44 GB   |    :  8    |    .torrent :  15    |   
1  
   
...
 

Galfimbul

avatar Galfimbul


/ Baskets

: Baskets
:
: 2018
:
: ,
: ~20 .
: ( ) Good People
: ()
:
: , , , , , , . , , , , , , .
: , , . , , . . . , - . , , , . , , . ?

: WEBRip 720p
: MKV
: AVC
: AC3
: AVC, 1280x720 (16:9), 23.976 fps, ~3074kbps, 0.136 bit/pixel
1: Dolby AC3 48000Hz 6ch 640 Kbps
2: Dolby E-AC3 48000Hz 6ch 640 Kbps
: ( 12 .)
General
Unique ID : 223218443042490058434130392657057586142 (0xA7EE4EF0A5FC0B8A9A5E6D7977049BDE)
Complete name : Baskets.S03E01.Wild.Horses.720p.AMZN.WEB-DL.DDP5.1.H.264-GoodPeople.mkv
Format : Matroska
Format version : Version 2
File size : 734 MiB
Duration : 23mn 28s
Overall bit rate mode : Variable
Overall bit rate : 4 371 Kbps
Encoded date : UTC 2018-02-10 08:01:54
Writing application : mkvmerge v5.4.0 ('Piper') built on Mar 10 2012 13:34:39
Writing library : libebml v1.2.3 + libmatroska v1.3.0
DURATION : 00:23:21.167000000
NUMBER_OF_FRAMES : 525
NUMBER_OF_BYTES : 15867
_STATISTICS_WRITING_APP : mkvmerge v19.0.0 ('Brave Captain') 64-bit
_STATISTICS_WRITING_DATE_UT : 2018-01-25 18:27:41
_STATISTICS_TAGS : BPS DURATION NUMBER_OF_FRAMES NUMBER_OF_BYTES

Video
ID : 1
Format : AVC
Format/Info : Advanced Video Codec
Format profile : [email protected]
Format settings, CABAC : Yes
Format settings, ReFrames : 5 frames
Codec ID : V_MPEG4/ISO/AVC
Duration : 23mn 28s
Bit rate mode : Variable
Bit rate : 3 004 Kbps
Maximum bit rate : 4 500 Kbps
Width : 1 280 pixels
Height : 720 pixels
Display aspect ratio : 16:9
Frame rate mode : Constant
Frame rate : 23.976 fps
Color space : YUV
Chroma subsampling : 4:2:0
Bit depth : 8 bits
Scan type : Progressive
Bits/(Pixel*Frame) : 0.136
Stream size : 504 MiB (69%)
Default : Yes
Forced : No
Color range : Limited
Color primaries : BT.709
Transfer characteristics : BT.709
Matrix coefficients : BT.709

Audio #1
ID : 2
Format : AC-3
Format/Info : Audio Coding 3
Mode extension : CM (complete main)
Format settings, Endianness : Big
Codec ID : A_AC3
Duration : 23mn 28s
Bit rate mode : Constant
Bit rate : 640 Kbps
Channel(s) : 6 channels
Channel positions : Front: L C R, Side: L R, LFE
Sampling rate : 48.0 KHz
Compression mode : Lossy
Stream size : 107 MiB (15%)
Language : Russian
Default : Yes
Forced : No

Audio #2
ID : 3
Format : E-AC-3
Format/Info : Audio Coding 3
Format settings, Endianness : Big
Codec ID : A_EAC3
Duration : 23mn 28s
Bit rate mode : Constant
Bit rate : 640 Kbps
Channel(s) : 6 channels
Channel positions : Front: L C R, Side: L R, LFE
Sampling rate : 48.0 KHz
Compression mode : Lossy
Stream size : 107 MiB (15%)
Language : English
Default : No
Forced : No

Text
ID : 4
Format : UTF-8
Codec ID : S_TEXT/UTF8
Codec ID/Info : UTF-8 Plain Text
Language : English
Default : No
Forced : No


 ·  , , FAQ-
:  [ 10--2018 11:24 ]

  

.torrent

.torrent 15 KB


: 1.44 GB
(hash) : f5ee100cd85e09bbcb9e224b69f93e95ddf122fa
:
··
...

. !

!