Beitrag melden, Down melden u. Reup- Meldung | View Profile | WYSZUKAJ

Скачать через торрент Знак истинного пути Сезон: 1 Фильм бесплатно в хорошем качестве torrent

Скачивайте на UnionPeer.org фильмы через торрент без регистрации. Новинки кино в хорошем качестве через торрент. На UnionPeer.org можно скачать через торрент фильмы 2014 и 2015 годов. Самые новые фильмы.

Скачать торрент Знак истинного пути Сезон: 1 бесплатно через .torrent фильм мультфильм сериал

Статистика раздачи
Размер:  2.98 GB   |    Зарегистрирован:  3 месяца 12 дней   |    .torrent скачан:  75 раз   |   
Раздают:  1  
   
загрузка...
 
Автор Сообщение

Galfimbul

avatar Galfimbul


Знак истинного пути
Год выпуска: 2012
Производство: «ООО "Стар Медиа Дистрибьюшн" по заказу ЗАО "Новый Канал"»
Жанр: Детектив, криминальный фильм, экранизация
Продолжительность: ~ 45 мин.
Субтитры: Отсутствуют
Режиссер: Вячеслав Лавров
В ролях: Валентина Талызина, Алексей Секирин, Сергей Колешня, Алла Захарова, Алексей Рахманов, Алена Левкович, Анастасия Платонова, Юрий Балицкий, Роман Хеидзе, Ирэна Дубровская, Станислав Костецкий, Ваня Егоров, Владимир Демидов, Иван Мамонов, Юрий Сувейко, Мария Чувилина, Александр Никольский (II), Валерий Скорокосов, Олег Захарутин, Денис Мокроусов и др.
Описание: По мотивам одноименного романа Елены Михалковой.

Частный детектив Макар получает задание от владелицы сети модных салонов красоты Евгении Генриховны Гольц разыскать пропавшую без вести шесть с половиной лет назад дочь Элину. Загадочные обстоятельства ее исчезновения оказалось не под силу расследовать двенадцати детективам. Но сложность только разжигает азарт Макара, и он с головой окунается в расследование запутанного дела...



Релиз группы
Источник рипа - Nikolspup
Семпл
Кино-Театр
Качество: HDTVRip
Формат: AVI
Видео кодек: XviD
Аудио кодек: AC3
Видео: 720x400 (1.80:1), 25 fps, XviD build 73 ~1899 kbps avg, 0.26 bit/pixel
Аудио: 48 kHz, AC3 Dolby Digital, 3/2 (L,C,R,l,r) + LFE ch, ~448.00 kbps avg
Общее
Идентификатор                            : 1 (0x1)
Полное имя                               : D:\Торрент\После\Znak.istinnogo.puti.2012.HDTV.(1080i).Nikolspup\Znak.istinnogo.puti.(01.seriya.iz.04).2012.HDTV.(1080i).Nikolspup.ts
Формат                                   : MPEG-TS
Размер файла                             : 3,05 Гбайт
Продолжительность                        : 45 м. 17 с.
Режим общего битрейта                    : Переменный
Общий поток                              : 9631 Кбит/сек

Видео
Идентификатор                            : 3531 (0xDCB)
Идентификатор меню                       : 17013 (0x4275)
Формат                                   : AVC
Формат/Информация                        : Advanced Video Codec
Профиль формата                          : [email protected]
Настройки формата                        : CABAC / 4 Ref Frames
Параметр CABAC формата                   : Да
Параметр RefFrames формата               : 4 кадра
Параметр GOP формата                     : M=1, N=32
Идентификатор кодека                     : 27
Продолжительность                        : 45 м. 17 с.
Битрейт                                  : 8509 Кбит/сек
Ширина                                   : 1920 пикселей
Высота                                   : 1080 пикселей
Соотношение сторон                       : 16:9
Частота кадров                           : 25,000 кадров/сек
Цветовое пространство                    : YUV
Субдискретизация насыщенности            : 4:2:0
Битовая глубина                          : 8 бит
Тип развёртки                            : Чересстрочная
Метод сохранения типа развёртки          : Раздельные поля
Порядок развёртки                        : Верхнее поле первое
Бит/(Пиксели*Кадры)                      : 0.164
Размер потока                            : 2,69 Гбайт (88%)
Цветовой диапазон                        : Limited
Основные цвета                           : BT.709
Характеристики трансфера                 : BT.709
Коэффициенты матрицы                     : BT.709

Аудио #1
Идентификатор                            : 3532 (0xDCC)
Идентификатор меню                       : 17013 (0x4275)
Формат                                   : AC-3
Формат/Информация                        : Audio Coding 3
Идентификатор кодека                     : 6
Продолжительность                        : 45 м. 17 с.
Вид битрейта                             : Постоянный
Битрейт                                  : 448 Кбит/сек
Каналы                                   : 6 каналов
Расположение каналов                     : Front: L C R, Side: L R, LFE
Частота                                  : 48,0 КГц
Частота кадров                           : 31,250 кадров/сек (1536 SPF)
Битовая глубина                          : 16 бит
Метод сжатия                             : С потерями
Размер потока                            : 145 Мбайт (5%)
Язык                                     : Russian
ServiceKind/String                       : Complete Main

Аудио #2
Идентификатор                            : 3533 (0xDCD)
Идентификатор меню                       : 17013 (0x4275)
Формат                                   : MPEG Audio
Версия формата                           : Version 1
Профиль формата                          : Layer 2
Идентификатор кодека                     : 3
Продолжительность                        : 45 м. 17 с.
Вид битрейта                             : Постоянный
Битрейт                                  : 192 Кбит/сек
Каналы                                   : 2 канала
Частота                                  : 48,0 КГц
Частота кадров                           : 41,667 кадра/сек (1152 SPF)
Метод сжатия                             : С потерями
Размер потока                            : 62,2 Мбайт (2%)
Язык                                     : Russian
Общее
Полное имя                               : D:\Знак истинного пути\Znak.istinnogo.puti.S01E01.2012.HDTVRip.RG.Russkie.serialy.avi
Формат                                   : AVI
Формат/Информация                        : Audio Video Interleave
Размер файла                             : 764 Мбайт
Продолжительность                        : 45 м. 17 с.
Общий поток                              : 2358 Кбит/сек
Программа кодирования                    : VirtualDubMod 1.5.10.3 | www.virtualdub-fr.org || (build 2550/release)
Библиотека кодирования                   : VirtualDubMod build 2550/release

Видео
Идентификатор                            : 0
Формат                                   : MPEG-4 Visual
Профиль формата                          : Advanced [email protected]
Настройки формата                        : BVOP2 / Custom Matrix
Параметр BVOP формата                    : 2
Параметр QPel формата                    : Нет
Параметр GMC формата                     : Без точки перехода
Параметр матрицы формата                 : Выборочная
Идентификатор кодека                     : XVID
Идентификатор кодека/Подсказка           : XviD
Продолжительность                        : 45 м. 17 с.
Битрейт                                  : 1900 Кбит/сек
Ширина                                   : 720 пикселей
Высота                                   : 400 пикселей
Соотношение сторон                       : 16:9
Частота кадров                           : 25,000 кадров/сек
Цветовое пространство                    : YUV
Субдискретизация насыщенности            : 4:2:0
Битовая глубина                          : 8 бит
Тип развёртки                            : Прогрессивная
Метод сжатия                             : С потерями
Бит/(Пиксели*Кадры)                      : 0.264
Размер потока                            : 616 Мбайт (81%)
Библиотека кодирования                   : XviD 73

Аудио
Идентификатор                            : 1
Формат                                   : AC-3
Формат/Информация                        : Audio Coding 3
Идентификатор кодека                     : 2000
Продолжительность                        : 45 м. 17 с.
Вид битрейта                             : Постоянный
Битрейт                                  : 448 Кбит/сек
Каналы                                   : 6 каналов
Расположение каналов                     : Front: L C R, Side: L R, LFE
Частота                                  : 48,0 КГц
Частота кадров                           : 31,250 кадров/сек (1536 SPF)
Битовая глубина                          : 16 бит
Метод сжатия                             : С потерями
Размер потока                            : 145 Мбайт (19%)
Выравнивание                             : Разделение по промежуткам
Продолжительность промежутка             : 40  мс. (1,00 видеокадр)
Время предзагрузки промежутка            : 500  мс.
ServiceKind/String                       : Complete Main


Трекер:  [ 10-Фев-2018 11:18 ]

  

Скачать .torrent

Размер .torrent файла 15 KB


Размер: 2.98 GB
Хэш (hash) релиза: dec83a2b948ece6e963043f4d69647564246607d
Подписка на обновления:

Еще никто не оставлял запись к записи скачать торрент Знак истинного пути Сезон: 1 . Будь первым!

!Обратная связь