Movies 2015
Murenase! Shiiton Gakuen

Скачать через торрент Лапси Серии: 1-2 из 8 Фильм бесплатно в хорошем качестве torrent

Скачивайте на UnionPeer.org фильмы через торрент без регистрации. Новинки кино в хорошем качестве через торрент. На UnionPeer.org можно скачать через торрент фильмы 2014 и 2015 годов. Самые новые фильмы.

Скачать торрент Лапси Серии: 1-2 из 8 бесплатно через .torrent фильм мультфильм сериал

Статистика раздачи
Размер:  1.16 GB   |    Зарегистрирован:  3 месяца 12 дней   |    .torrent скачан:  118 раз   |   
Раздают:  1  
   
загрузка...
 
Автор Сообщение

Galfimbul

avatar Galfimbul


Лапси
Год выпуска: 2018
Производство: Yellow, Black and White, Кинокомпания «Небо»
Жанр: Мистика, триллер, драма
Продолжительность: 00:48:26
Субтитры: нет
Режиссёр: Артём Аксененко
В ролях: Мария Машкова, Даниил Воробьёв, Диана Пожарская, Антон Кузнецов, Денис Парамонов, Иван Верховых, Наталия Вдовина, Владимир Чуприков, Михаил Химичев, Максим Жегалин, Олег Дуленин, Ирина Чериченко, Алла Иванцова, Борис Хвошнянский, Максим Белбородов, Андрей Филиппак, Егор Черников-Бену
Описание: Группа ученых отправляется в Карелию, чтобы найти источник опасной эпидемии, но вместо этого они находят себя на таинственном острове Сариола, дарующем бессмертие и лишающим жизни по собственной воле.
Сэмпл: http://multi-up.com/1186602
Качество: WEBRip
Формат: AVI
Видео кодек: XviD
Аудио кодек: AC3
Видео: 720x304 (2.35:1), 23.976 fps, XviD build 73, 1497 Kbps, 0.28 Bits/Pixel
Аудио: 48 kHz, AC3 Dolby Digital, 2 ch, 192 Kbps

Реклама: Нет
General
Complete name : Downloads\Lapsi\Lapsi.01.avi
Format : AVI
Format/Info : Audio Video Interleave
File size : 589 MiB
Duration : 48mn 26s
Overall bit rate : 1 699 Kbps
Writing application : VirtualDubMod 1.5.10.3 | www.virtualdub-fr.org || (build 2550/release)
Writing library : VirtualDubMod build 2550/release
Video #0
ID : 0
Format : MPEG-4 Visual
Format profile : Advanced [email protected]
Format settings, BVOP : 1
Format settings, QPel : No
Format settings, GMC : No warppoints
Format settings, Matrix : Custom
Codec ID : XVID
Codec ID/Hint : XviD
Duration : 48mn 26s
Bit rate : 1 497 Kbps
Width : 720 pixels
Height : 304 pixels
Display aspect ratio : 2.35:1
Frame rate : 23.976 fps
Color space : YUV
Chroma subsampling : 4:2:0
Bit depth : 8 bits
Scan type : Progressive
Compression mode : Lossy
Bits/(Pixel*Frame) : 0.285
Stream size : 519 MiB (88%)
Writing library : XviD 73
Audio #1
ID : 1
Format : AC-3
Format/Info : Audio Coding 3
Mode extension : CM (complete main)
Format settings, Endianness : Big
Codec ID : 2000
Duration : 48mn 26s
Bit rate mode : Constant
Bit rate : 192 Kbps
Channel(s) : 2 channels
Channel positions : Front: L R
Sampling rate : 48.0 KHz
Bit depth : 16 bits
Compression mode : Lossy
Stream size : 66.5 MiB (11%)
Alignment : Split accross interleaves
Interleave, duration : 42 ms (1.00 video frame)
Interleave, preload duration : 500 ms
(1) остановить скачивание,
(2) удалить старый торрент у себя из клиента (старые серии удалять не надо),
(3) скачать новый торрент и запустить его у себя в клиенте вместо старого, при этом указать клиенту путь в старую папку куда и должно происходить скачивание новых серий.
Ваш клиент при этом должен произвести хеширование (проверку) старой папки (если не производит сам - помогите ему сделать это), и будет докачивать только те серии которых у вас ещё нет. Старые серии при этом не удаляются, а продолжают раздаваться!
Eсли вы уже удалили старые серии, то предотвратить повторную закачку старых серий можно, отжав галочку в соответсвующих местах при запуске нового торрента. По возможности, желательно не удалять старые серии как можно дольше чтобы релизёр не столько продолжал раздавать старые серии, а смог сконцентрироваться на новых.
Предыдущие и альтернативные раздачи

Трекер:  [ 10-Фев-2018 05:48 ]

  

Скачать .torrent

Размер .torrent файла 12 KB


Размер: 1.16 GB
Хэш (hash) релиза: 59bc03f14cbf025eaa7b881503c1ed0a9a97b78d
Подписка на обновления:

Торренты, похожие на Лапси Серии: 1-2 из 8 скачать торрент

Форум Название Автор Размер S L Добавлен
Российские сериалы ·· Лапси / Серии: 1-2 из 8 (Артем Аксененко) [2018, мистика, триллер, драма, WEBRip 1080p] Galfimbul 48030783584.47 GB 0 0 1518297676

00:21

11-Фев-18

Еще никто не оставлял запись к записи скачать торрент Лапси Серии: 1-2 из 8 . Будь первым!

!Обратная связь