Season 12 Episode 4 American Nightmare | GB+ Whatsapp APK v3.80 (Whatsapp Client) - Android App | George Alderson

Maigret torrent

UnionPeer.org . . UnionPeer.org 2014 2015 . .

Maigret .torrent

, , - AdBlock. #!


13.36 GB   |    :  8    |    .torrent :  53    |   
2  
   
...
 

Galfimbul

avatar Galfimbul


| Maigret

,

: 2017 (2 )
:
: , , ,
: ~ 01:28:00
: ( ) RATTLEBOX
: ( ),

: /Sarah Harding, Β/Thaddeus O'Sullivan

: ( ), ( ), ( ), ( ), ( ), ( ), ( ), ( ), ( ) .

: - . . , . . , . , , , . , , ,



: ( )
: , , , -, , , , , , , ,
:


<div class="sp-wrap">
<div class="sp-head folded">01. | Maigret: Night at the Crossroads</div>
<div class="sp-body"> , . , ? , . , ? .
<div class="sp-wrap">
<div class="sp-head folded">02. | Maigret in Montmartre</div>
<div class="sp-body"> - , - .
</div>
</div>
</div>
</div>

: BDRip 1080p
: MKV
: H.264
: AC3, DTS
: MPEG-4 AVC, 1920x1080 (16:9), 25.000 fps, ~9000 Kbps, 0.177 bpp
1: [] AC3, 48 kHz, 2 ch, 192 kbps | RATTLEBOX
2: [] DTS, 48 kHz, 6 ch, 1509 kbps
: , (SRT)
:

General
Unique ID : 220898884838497102877854655030392545196 (0xA62F93E4189CC05A9D0CB2F1FA605FAC)
Complete name : E:\...\Maigret.S02.1080p.BDRip\Maigret.S02E01.Maigret.Night.at.the.Crossroads.1080p.BDRip.Rus.Eng.mkv
Format : Matroska
Format version : Version 4 / Version 2
File size : 6.68 GiB
Duration : 1 h 27 min
Overall bit rate : 10.9 Mb/s
Encoded date : UTC 2018-02-09 05:01:08
Writing application : mkvmerge v7.3.0 ('Nouages') 64bit built on Oct 22 2014 18:53:34
Writing library : libebml v1.3.0 + libmatroska v1.4.1

Video
ID : 1
Format : AVC
Format/Info : Advanced Video Codec
Format profile : [email protected]
Format settings : CABAC / 4 Ref Frames
Format settings, CABAC : Yes
Format settings, ReFrames : 4 frames
Codec ID : V_MPEG4/ISO/AVC
Duration : 1 h 27 min
Bit rate : 9 185 kb/s
Width : 1 920 pixels
Height : 1 080 pixels
Display aspect ratio : 16:9
Frame rate mode : Constant
Frame rate : 25.000 FPS
Color space : YUV
Chroma subsampling : 4:2:0
Bit depth : 8 bits
Scan type : Progressive
Bits/(Pixel*Frame) : 0.177
Stream size : 5.63 GiB (84%)
Writing library : x264 core 155 r2901 7d0ff22
Encoding settings : cabac=1 / ref=4 / deblock=1:-3:-3 / analyse=0x3:0x113 / me=umh / subme=8 / psy=1 / psy_rd=1.00:0.00 / mixed_ref=1 / me_range=16 / chroma_me=1 / trellis=1 / 8x8dct=1 / cqm=0 / deadzone=21,11 / fast_pskip=1 / chroma_qp_offset=-2 / threads=6 / lookahead_threads=1 / sliced_threads=0 / nr=0 / decimate=1 / interlaced=0 / bluray_compat=0 / constrained_intra=0 / bframes=3 / b_pyramid=2 / b_adapt=2 / b_bias=0 / direct=3 / weightb=1 / open_gop=0 / weightp=2 / keyint=250 / keyint_min=25 / scenecut=40 / intra_refresh=0 / rc_lookahead=50 / rc=2pass / mbtree=1 / bitrate=9185 / ratetol=1.0 / qcomp=0.60 / qpmin=0 / qpmax=69 / qpstep=4 / cplxblur=20.0 / qblur=0.5 / ip_ratio=1.40 / aq=3:0.80
Default : Yes
Forced : No

Audio #1
ID : 2
Format : AC-3
Format/Info : Audio Coding 3
Codec ID : A_AC3
Duration : 1 h 27 min
Bit rate mode : Constant
Bit rate : 192 kb/s
Channel(s) : 2 channels
Channel positions : Front: L R
Sampling rate : 48.0 kHz
Frame rate : 31.250 FPS (1536 SPF)
Bit depth : 16 bits
Compression mode : Lossy
Stream size : 121 MiB (2%)
Title : RATTLEBOX
Language : Russian
Service kind : Complete Main
Default : Yes
Forced : No

Audio #2
ID : 3
Format : DTS
Format/Info : Digital Theater Systems
Codec ID : A_DTS
Duration : 1 h 27 min
Bit rate mode : Constant
Bit rate : 1 509 kb/s
Channel(s) : 6 channels
Channel positions : Front: L C R, Side: L R, LFE
Sampling rate : 48.0 kHz
Frame rate : 93.750 FPS (512 SPF)
Bit depth : 24 bits
Compression mode : Lossy
Stream size : 947 MiB (14%)
Language : English
Default : No
Forced : No

Text #1
ID : 4
Format : UTF-8
Codec ID : S_TEXT/UTF8
Codec ID/Info : UTF-8 Plain Text
Duration : 1 h 25 min
Bit rate : 109 b/s
Count of elements : 1239
Stream size : 68.3 KiB (0%)
Title :
Language : Russian
Default : No
Forced : No

Text #2
ID : 5
Format : UTF-8
Codec ID : S_TEXT/UTF8
Codec ID/Info : UTF-8 Plain Text
Duration : 1 h 25 min
Bit rate : 66 b/s
Count of elements : 1222
Stream size : 41.7 KiB (0%)
Language : English
Default : No
Forced : No

Menu
00:00:00.000 : en:00:00:00.000
00:11:09.560 : en:00:11:09.560
00:20:29.320 : en:00:20:29.320
00:31:16.000 : en:00:31:16.000
00:41:55.560 : en:00:41:55.560
00:50:51.320 : en:00:50:51.320
00:59:02.520 : en:00:59:02.520
01:11:37.960 : en:01:11:37.960
01:17:16.920 : en:01:17:16.920






 ·  , , FAQ-
:  [ 10--2018 01:24 ]

  

.torrent

.torrent 67 KB


: 13.36 GB
(hash) : 771ca88142a8c1c4ed4eb33f6b2f1cd8dfb04253
:
··
...

Maigret . !

!