Jurassic World Fallen Kingdom (2018) 720p BDRip Free Streaming | Shooter - S03Duration: 1h | Crank 2 High Voltage

Скачать через торрент Та еще поездочка The Detour Фильм бесплатно в хорошем качестве torrent

Скачивайте на UnionPeer.org фильмы через торрент без регистрации. Новинки кино в хорошем качестве через торрент. На UnionPeer.org можно скачать через торрент фильмы 2014 и 2015 годов. Самые новые фильмы.

Скачать торрент Та еще поездочка The Detour бесплатно через .torrent фильм мультфильм сериал

Статистика раздачи
Размер:  1.32 GB   |    Зарегистрирован:  6 месяцев   |    .torrent скачан:  41 раз   |   
Раздают:  2  
   
загрузка...
 
Автор Сообщение

Galfimbul

avatar Galfimbul



В объезд | The Detour

Год выпуска: 2018
Страна: США
Жанр: Комедия, роуд-сериал
Продолжительность: ~ 00:20:00
Перевод: Профессиональный (многоголосый закадровый) | Jaskier
Режиссёр: Джефф Томсич, Стив Пинк, Бреннан Шрофф
В ролях: Джейсон Джонс, Натали Зи, Эшли Герасимович, Лайам Кэрролл, Мэри Грилл, Даниэлла Пинеда, Фил Ривз, Дэрин Купер, Деджа Ди, Тейлор Ковальски, Винс Фостер, Денитра Ислер, Адам Бойер, Том Амандес и др.
Описание: Главные герои проживали во Флориде. У них двое детей. Однако скучная рутинная жизнь им надоела, поэтому герои решили отправиться в большое путешествие! Путь непростой, но герои всегда оптимистичны - они верят в себя, а их путь благоволит им. Кажется, что впереди их ждет долгая дорога, полная интересных открытий. Герои воодушевлены дорогой, однако вскоре они понимают, что проблем в пути будет куда больше, чем положительных моментов!

| |
Качество: WEB-DL 720p
Формат: MKV
Видео: 1280x720 (16:9) | X264 | ~3500 kbps | 23.976 fps
Аудио 1: AC3, 48,0 КГц, 6 ch, 384 kbps - [RUS]
Аудио 2: AC3, 48,0 КГц, 6 ch, 384 kbps - [ENG]
Субтитры: английские
Реклама: Присутствует звуковая (два раза в начале и конце по 12 сек.)
Переведено и озвучено: студией Jaskier
Общее
Уникальный идентификатор                 : 224671830883005650614115559011412252137 (0xA906387E355EDACEB7EC75039AEA95E9)
Полное имя                               : D:\Яскъер\The Detour. Season 3 (WEB-DL l 720p l Jaskier)\The.Detour.S03E02.720p.WEB-DL.DD5.1.H.264-Jaskier.mkv
Формат                                   : Matroska
Версия формата                           : Version 2
Размер файла                             : 646 Мбайт
Продолжительность                        : 21 м. 11 с.
Режим общего битрейта                    : Переменный
Общий поток                              : 4261 Кбит/сек
Дата кодирования                         : UTC 2018-02-09 13:49:01
Программа кодирования                    : mkvmerge v7.8.0 ('River Man') 32bit built on Apr  3 2015 12:11:22
Библиотека кодирования                   : libebml v1.3.1 + libmatroska v1.4.2

Видео
Идентификатор                            : 1
Формат                                   : AVC
Формат/Информация                        : Advanced Video Codec
Профиль формата                          : [email protected]
Настройки формата                        : CABAC / 5 Ref Frames
Параметр CABAC формата                   : Да
Параметр RefFrames формата               : 5 кадров
Идентификатор кодека                     : V_MPEG4/ISO/AVC
Продолжительность                        : 21 м. 11 с.
Вид битрейта                             : Переменный
Битрейт                                  : 3408 Кбит/сек
Максимальный битрейт                     : 4500 Кбит/сек
Ширина                                   : 1280 пикселей
Высота                                   : 720 пикселей
Соотношение сторон                       : 16:9
Режим частоты кадров                     : Постоянный
Частота кадров                           : 23,976 (24000/1001) кадра/сек
Цветовое пространство                    : YUV
Субдискретизация насыщенности            : 4:2:0
Битовая глубина                          : 8 бит
Тип развёртки                            : Прогрессивная
Бит/(Пиксели*Кадры)                      : 0.154
Размер потока                            : 516 Мбайт (80%)
Язык                                     : Russian
Default                                  : Да
Forced                                   : Нет
Цветовой диапазон                        : Limited
Основные цвета                           : BT.709
Характеристики трансфера                 : BT.709
Коэффициенты матрицы                     : BT.709

Аудио #1
Идентификатор                            : 2
Формат                                   : AC-3
Формат/Информация                        : Audio Coding 3
Идентификатор кодека                     : A_AC3
Продолжительность                        : 21 м. 11 с.
Вид битрейта                             : Постоянный
Битрейт                                  : 384 Кбит/сек
Каналы                                   : 6 каналов
Расположение каналов                     : Front: L C R, Side: L R, LFE
Частота                                  : 48,0 КГц
Частота кадров                           : 31,250 кадров/сек (1536 SPF)
Битовая глубина                          : 16 бит
Метод сжатия                             : С потерями
Размер потока                            : 58,2 Мбайт (9%)
Заголовок                                : Jaskier
Язык                                     : Russian
ServiceKind/String                       : Complete Main
Default                                  : Да
Forced                                   : Нет

Аудио #2
Идентификатор                            : 3
Формат                                   : AC-3
Формат/Информация                        : Audio Coding 3
Идентификатор кодека                     : A_AC3
Продолжительность                        : 21 м. 11 с.
Вид битрейта                             : Постоянный
Битрейт                                  : 384 Кбит/сек
Каналы                                   : 6 каналов
Расположение каналов                     : Front: L C R, Side: L R, LFE
Частота                                  : 48,0 КГц
Частота кадров                           : 31,250 кадров/сек (1536 SPF)
Битовая глубина                          : 16 бит
Метод сжатия                             : С потерями
Размер потока                            : 58,2 Мбайт (9%)
Язык                                     : English
ServiceKind/String                       : Complete Main
Default                                  : Нет
Forced                                   : Нет

Текст
Идентификатор                            : 4
Формат                                   : UTF-8
Идентификатор кодека                     : S_TEXT/UTF8
Идентификатор кодека/Информация          : UTF-8 Plain Text
Язык                                     : English
Default                                  : Нет
Forced                                   : Нет
Когда раздача ведётся путём добавления новых серий, при каждом добавлении создётся новый торрент. Чтобы начать докачку новой серии, пользователям необходимо сделать следующее:
(1) остановить скачивание,
(2) удалить старый торрент у себя из клиента (старые серии удалять не надо),
(3) скачать новый торрент и запустить его у себя в клиенте вместо старого, при этом указать клиенту путь в старую папку, куда и должно происходить скачивание новых серий.
Ваш клиент при этом должен произвести хеширование (проверку) старой папки (если не производит сам - помогите ему сделать это), и будет докачивать только те серии, которых у вас ещё нет. Старые серии при этом не удаляются, а продолжают раздаваться!
Eсли вы уже удалили старые серии, то предотвратить повторную закачку старых серий можно, отжав галочку в соответсвующих местах при запуске нового торрента. По возможности, желательно не удалять старые серии как можно дольше, чтобы релизёр не столько продолжал раздавать старые серии, а смог сконцентрироваться на новых.



Трекер:  [ 09-Фев-2018 17:24 ]

  

Скачать .torrent

Размер .torrent файла 13 KB


Размер: 1.32 GB
Хэш (hash) релиза: f244b7c375a12597f31a202dc5df10464f6e87dd
Подписка на обновления:

Еще никто не оставлял запись к записи скачать торрент Та еще поездочка The Detour . Будь первым!

!Обратная связь