Kevin (Probably) Saves the World | Watch movie | Aaron Douglas

Скачать через торрент В одиночестве вместе Alone Together Фильм бесплатно в хорошем качестве torrent

Скачивайте на UnionPeer.org фильмы через торрент без регистрации. Новинки кино в хорошем качестве через торрент. На UnionPeer.org можно скачать через торрент фильмы 2014 и 2015 годов. Самые новые фильмы.

Скачать торрент В одиночестве вместе Alone Together бесплатно через .torrent фильм мультфильм сериал

Если у вас наблюдаются проблемы со скриншотами, переходом по ссылками, скачиванием торрентов - проблемы в блокировщике рекламы AdBlock. #хорошегоДня!


Статистика раздачи
Размер:  4.39 GB   |    Зарегистрирован:  8 дней   |    .torrent скачан:  17 раз   |   
Раздают:  1  
   
Загрузка...
 
Автор Сообщение

Galfimbul

avatar Galfimbul


В одиночестве вместе / Alone Together

Год выпуска: 2018
Страна: США
Жанр: Комедия
Продолжительность: 00:30:00
Перевод: Любительский (двухголосый закадровый) Alternative Production
Режиссёр: Джейкоб Пингер

В ролях: Ханна Гриффитс, Бенжи Афлало, Фахим Анвар, Мэттью Бруссар, Джон ДеУолт, Рик Глассман, Эстер Повицки, Броди Стивенс
Описание:
Они всегда были только друзьями, надежными и проверенными, без единого намека на что-то большее. Этих двух неудачников связывало лишь одно желание – устроить себе благополучную и сытую жизнь в огромном мегаполисе. В очередной раз обсуждая друг с другом свои мечты, Эстер и Бенджи все же решаются кардинально изменить свои судьбы и приобретают два билета до Лос–Анджелеса. Они летят навстречу своей новой жизни, туда, где их будет окружать красота небоскребов, мистика огней ночного города и умиротворяющий шум океана, туда, где они обязательно найдут свой путь к успеху. Вот только не учли наши герои одного – рассчитывать в этом городе сказочных возможностей они смогут только на себя. Что ожидает Эстер и Бенджи в условиях выживания в новой среде – сохранят ли они свою былую дружбу? А может быть, характер их отношений приобретет другой, более лирический оттенок?
Все раздачи сериала
Качество: WEB-DL 1080p
Формат: MKV
Видео кодек: H.264
Аудио кодек: AC3
Видео: H.264, 1920x1080 (16:9), 23.976 fps, 12.0 Mbps, 0.151 bit/pixel
Аудио 1: AC3 Dolby Digital, 48 kHz, 3/2 (L,C,R,l,r) + LFE ch, 384 kbps
Аудио 2: AC3 Dolby Digital, 48 kHz, 3/2 (L,C,R,l,r) + LFE ch, 640 kbps
Субтитры: отсутствуют

Релиз
General
Unique ID                   : 208480580137936046461932926537244691728 (0x9CD7E632B2A48389A07182B665D54D10)
Complete name               :...\В одиночестве вместе 1 сезон [Alternative Production] 1080p\Alone Together S01E01 1080p [Alt Pro].mkv
Format                      : Matroska
Format version              : Version 4 / Version 2
File size                   : 1.43 GiB
Duration                    : 23 min 0 s
Overall bit rate mode       : Variable
Overall bit rate            : 8 909 kb/s
Encoded date                : UTC 2018-02-06 11:33:33
Writing application         : mkvmerge v17.0.0 ('Be Ur Friend') 64-bit
Writing library             : libebml v1.3.5 + libmatroska v1.4.8
Attachments                 : poster (16).jpg

Video
ID                          : 1
Format                      : AVC
Format/Info                 : Advanced Video Codec
Format profile              : [email protected]
Format settings             : CABAC / 4 Ref Frames
Format settings, CABAC      : Yes
Format settings, ReFrames   : 4 frames
Codec ID                    : V_MPEG4/ISO/AVC
Duration                    : 23 min 0 s
Bit rate mode               : Variable
Bit rate                    : 7 883 kb/s
Maximum bit rate            : 15.0 Mb/s
Width                       : 1 920 pixels
Height                      : 1 080 pixels
Display aspect ratio        : 16:9
Frame rate mode             : Constant
Frame rate                  : 23.976 (24000/1001) FPS
Color space                 : YUV
Chroma subsampling          : 4:2:0
Bit depth                   : 8 bits
Scan type                   : Progressive
Bits/(Pixel*Frame)          : 0.159
Stream size                 : 1.27 GiB (88%)
Default                     : Yes
Forced                      : No
Color range                 : Limited
Color primaries             : BT.709
Transfer characteristics    : BT.709
Matrix coefficients         : BT.709

Audio #1
ID                          : 2
Format                      : AC-3
Format/Info                 : Audio Coding 3
Codec ID                    : A_AC3
Duration                    : 23 min 0 s
Bit rate mode               : Constant
Bit rate                    : 384 kb/s
Channel(s)                  : 6 channels
Channel positions           : Front: L C R, Side: L R, LFE
Sampling rate               : 48.0 kHz
Frame rate                  : 31.250 FPS (1536 SPF)
Bit depth                   : 16 bits
Compression mode            : Lossy
Stream size                 : 63.2 MiB (4%)
Title                       : Alt Pro
Language                    : Russian
Service kind                : Complete Main
Default                     : Yes
Forced                      : No

Audio #2
ID                          : 3
Format                      : E-AC-3
Format/Info                 : Enhanced Audio Coding 3
Codec ID                    : A_EAC3
Duration                    : 23 min 0 s
Bit rate mode               : Constant
Bit rate                    : 640 kb/s
Channel(s)                  : 6 channels
Channel positions           : Front: L C R, Side: L R, LFE
Sampling rate               : 48.0 kHz
Frame rate                  : 187.500 FPS (256 SPF)
Compression mode            : Lossy
Stream size                 : 105 MiB (7%)
Language                    : English
Service kind                : Complete Main
Default                     : No
Forced                      : No
Внимание! Раздача ведётся путём добавления новых серий; при каждом добавлении создётся новый торрент. Чтобы начать докачку новой серии, пользователям необходимо сделать следующее:

Остановить скачивание.
Удалить старый торрент у себя из клиента (старые серии удалять не надо).
Скачать новый торрент и запустить его у себя в клиенте вместо старого, при этом указать клиенту путь в старую папку куда и должно происходить скачивание новых серий.

Ваш клиент при этом должен произвести хеширование (проверку) старой папки (если не производит сам - помогите ему сделать это), и будет докачивать только те серии которых у вас ещё нет. Старые серии при этом не удаляются, а продолжают раздаваться!
Eсли вы уже удалили старые серии, то предотвратить повторную закачку старых серий можно, отжав галочку в соответсвующих местах при запуске нового торрента. По возможности, желательно не удалять старые серии как можно дольше чтобы релизёр не столько продолжал раздавать старые серии, а смог сконцентрироваться на новых. <img class="smile" src="//static.t-ru.org/smiles/icon_arrow.gif" alt=""> Как закачать отдельный файл из торрента или докачать ранее пропущенные файлы торрента! <img class="smile" src="//static.t-ru.org/smiles/icon_arrow2.gif" alt="">


Трекер:  [ 09-Фев-2018 16:54 ]

  

Скачать .torrent

Размер .torrent файла 11 KB


Размер: 4.39 GB
Хэш (hash) релиза: 133896ac393c4b417b699b463b6c504b407761c6
Подписка на обновления:

Еще никто не оставлял запись к записи скачать торрент В одиночестве вместе Alone Together . Будь первым!

!Обратная связь