09. Episodio 02×09 : El dedo en el gatillo | Download | Grancrest Senki

Скачать через торрент Бойтесь ходячих мертвецов Fear the Walking Dead Фильм бесплатно в хорошем качестве torrent

Скачивайте на UnionPeer.org фильмы через торрент без регистрации. Новинки кино в хорошем качестве через торрент. На UnionPeer.org можно скачать через торрент фильмы 2014 и 2015 годов. Самые новые фильмы.

Скачать торрент Бойтесь ходячих мертвецов Fear the Walking Dead бесплатно через .torrent фильм мультфильм сериал

Статистика раздачи
Размер:  7.65 GB   |    Зарегистрирован:  3 месяца 16 дней   |    .torrent скачан:  53 раза   |   
Раздают:  1  
   
загрузка...
 
Автор Сообщение

Galfimbul

avatar Galfimbul


Бойтесь ходячих мертвецов / Fear the Walking Dead

Год выпуска: 2017
Страна: США
Жанр: ужасы, драма
Продолжительность: ~ 00:44:00

Перевод: Профессиональный (многоголосый закадровый) | Jaskier

Режиссёр: Адам Дэвидсон, Кари Скогланд, Стефан Шварц

В ролях: Клифф Кёртис, Ким Диккенс, Алисия Дебнем-Кери, Фрэнк Диллэйн, Рубен Блэйдс, Мерседес Масон, Колман Доминго, Лоренцо Джеймс Хенри, Элизабет Родригес, Тони Френч

Описание: Действия сериала происходят параллельно с событиями зомби-апокалипсиса, показанными в сериале «Ходячие мертвецы», но в совершенно другом месте — Лос-Анджелесе. В центре сюжета находится семья матери-одиночки и консультанта по профессиям Мэдисон Кларк и разведённого учителя Трэвиса Манавы, которые вместе пытаются выжить в зомби-апокалипсисе.



Качество: HDRip
Формат: AVI
Видео: XviD, ~ 1400 kbps, 720x400, 23.976 fps
Аудио 1: MP3, 48,0 КГц, 2 ch, 128 kbps - Rus
Субтитры: отсутствуют
Реклама: аудио, два раза в начале и в конце по 13 секунд
Ссылка на предыдущие и альтернативные раздачи
Общее
Формат                                   : AVI
Формат/Информация                        : Audio Video Interleave
Размер файла                             : 526 Мбайт
Продолжительность                        : 47 м.
Общий поток                              : 1537 Кбит/сек
Программа кодирования                    : VirtualDubMod 1.5.10.3 | www.virtualdub-fr.org || (build 2550/release)
Библиотека кодирования                   : VirtualDubMod build 2550/release

Видео
Идентификатор                            : 0
Формат                                   : MPEG-4 Visual
Профиль формата                          : Advanced [email protected]
Параметр BVOP формата                    : 2
Параметр QPel формата                    : Нет
Параметр GMC формата                     : Без точки перехода
Параметр матрицы формата                 : Выборочная
Идентификатор кодека                     : XVID
Идентификатор кодека/Подсказка           : XviD
Продолжительность                        : 47 м.
Битрейт                                  : 1400 Кбит/сек
Ширина                                   : 720 пикселей
Высота                                   : 400 пикселей
Соотношение сторон                       : 16:9
Частота кадров                           : 23,976 (23976/1000) кадра/сек
Цветовое пространство                    : YUV
Субдискретизация насыщенности            : 4:2:0
Битовая глубина                          : 8 бит
Тип развёртки                            : Прогрессивная
Метод сжатия                             : С потерями
Бит/(Пиксели*Кадры)                      : 0.203
Размер потока                            : 479 Мбайт (91%)
Библиотека кодирования                   : XviD 73

Аудио
Идентификатор                            : 1
Формат                                   : MPEG Audio
Версия формата                           : Version 1
Профиль формата                          : Layer 3
Режим                                    : Joint stereo
Расширение режима                        : MS Stereo
Идентификатор кодека                     : 55
Идентификатор кодека/Подсказка           : MP3
Продолжительность                        : 47 м.
Вид битрейта                             : Постоянный
Битрейт                                  : 128 Кбит/сек
Каналы                                   : 2 канала
Частота                                  : 48,0 КГц
Метод сжатия                             : С потерями
Размер потока                            : 43,8 Мбайт (8%)
Выравнивание                             : Соединение по промежуткам
Продолжительность промежутка             : 42  мс. (1,00 видеокадр)
Время предзагрузки промежутка            : 504  мс.
Когда раздача ведётся путём добавления новых серий, при каждом добавлении создётся новый торрент. Чтобы начать докачку новой серии, пользователям необходимо сделать следующее:
(1) остановить скачивание,
(2) удалить старый торрент у себя из клиента (старые серии удалять не надо),
(3) скачать новый торрент и запустить его у себя в клиенте вместо старого, при этом указать клиенту путь в старую папку, куда и должно происходить скачивание новых серий.
Ваш клиент при этом должен произвести хеширование (проверку) старой папки (если не производит сам - помогите ему сделать это), и будет докачивать только те серии, которых у вас ещё нет. Старые серии при этом не удаляются, а продолжают раздаваться!
Eсли вы уже удалили старые серии, то предотвратить повторную закачку старых серий можно, отжав галочку в соответсвующих местах при запуске нового торрента. По возможности, желательно не удалять старые серии как можно дольше, чтобы релизёр не столько продолжал раздавать старые серии, а смог сконцентрироваться на новых.


Трекер:  [ 09-Фев-2018 16:48 ]

  

Скачать .torrent

Размер .torrent файла 40 KB


Размер: 7.65 GB
Хэш (hash) релиза: ba92c0a9b8e8f09f0b01d71689640796252d3389
Подписка на обновления:

Торренты, похожие на Бойтесь ходячих мертвецов Fear the Walking Dead скачать торрент

Форум Название Автор Размер S L Добавлен
Зарубежные сериалы ·· Бойтесь ходячих мертвецов / Fear the Walking Dead / Сезон: 3 / Серии: 1-16 из 16 (Адам Дэвидсон, Кари Скогланд, Стефан Шварц) [2017, США, ужасы, драма, BDRip 720p] MVO (Jaskier)+ Original + Eng Subs Galfimbul 3627538442233.78 GB 0 0 1518184523

16:55

9-Фев-18

Зарубежные сериалы ·· Бойтесь ходячих мертвецов / Fear the Walking Dead / Сезон: 3 / Серии: 1-3 из 16 (Кари Скогланд, Стефан Шварц) [2017, США, Ужасы, драма, WEB-DLRip] MVO (AMC) + Original Galfimbul 17319976961.61 GB 0 0 1497280972

18:22

12-Июн-17

Зарубежные сериалы ·· Бойтесь ходячих мертвецов / Fear the Walking Dead / Сезон: 3 / Серии: 1-2 из 16 (Кари Скогланд, Стефан Шварц) [2017, США, Ужасы, драма, WEB-DL 1080p] MVO (LostFilm) + Original + Sub eng Galfimbul 43270284704.03 GB 0 0 1496950319

22:31

8-Июн-17

Зарубежные сериалы ·· Бойтесь ходячих мертвецов / Fear the Walking Dead / Сезон: 3 / Серии: 1-2 из 16 (Адам Дэвидсон, Кари Скогланд, Стефан Шварц) [2017, США, ужасы, драма, WEB-DLRip] DVO (Gears Media) + Original Galfimbul 12767843021.19 GB 0 0 1496840217

15:56

7-Июн-17

Зарубежные сериалы ·· Бойтесь ходячих мертвецов / Fear the Walking Dead / Сезон: 3 / Серии: 1-2 из 16 (Адам Дэвидсон, Кари Скогланд, Стефан Шварц) [2017, США, ужасы, драма, WEB-DL 720p] DVO (Gears Media) + Original Galfimbul 35178451653.28 GB 0 0 1496798760

04:26

7-Июн-17

Зарубежные сериалы ·· Бойтесь ходячих мертвецов / Fear the Walking Dead / Сезон: 3 / Серии: 1 из 16 (Кари Скогланд, Стефан Шварц) [2017, США, Ужасы, драма, WEB-DL 1080p] MVO (LostFilm) + Original + Sub eng Galfimbul 21216014531.98 GB 0 0 1496849153

18:25

7-Июн-17

Зарубежные сериалы ·· Бойтесь ходячих мертвецов / Fear the Walking Dead / Сезон: 3 / Серии: 1 из 16 (Адам Дэвидсон, Кари Скогланд, Стефан Шварц) [2017, США, ужасы, драма, WEB-DLRip] MVO (LostFilm) Galfimbul 577347584551 MB 0 0 1496773531

21:25

6-Июн-17

Еще никто не оставлял запись к записи скачать торрент Бойтесь ходячих мертвецов Fear the Walking Dead . Будь первым!

!Обратная связь