Entertainment Humor | Queen Sugar S03E03 WEBRip x264-PBS[ettv] 48 minutes | Cooper's Treasure: Season ...

Скачать через торрент Последний из Магикян Сезон: 4 Фильм бесплатно в хорошем качестве torrent

Скачивайте на UnionPeer.org фильмы через торрент без регистрации. Новинки кино в хорошем качестве через торрент. На UnionPeer.org можно скачать через торрент фильмы 2014 и 2015 годов. Самые новые фильмы.

Скачать торрент Последний из Магикян Сезон: 4 бесплатно через .torrent фильм мультфильм сериал

Статистика раздачи
Размер:  5.87 GB   |    Зарегистрирован:  5 месяцев 6 дней   |    .torrent скачан:  31 раз   |   
Раздают:  1  
   
загрузка...
 
Автор Сообщение

Galfimbul

avatar Galfimbul


Последний из Магикян

Год выпуска: 2015
Производство: Yellow, Black & White
Жанр: комедия, семейный
Продолжительность: ~00:24:00 серия
Субтитры: нет

Режиссёр: Резо Гигинеишвили, Акаки Сахелашвили

В ролях: Грант Тохатян, Анна Ардова, Элен Касьяник, Алина Гринберг, Луиза-Габриэла Бровина, Андрей Бурковский, Темико Чичинадзе, Александр Феклистов, Наталия Вдовина

Описание: Главное событие в жизни Карена Магикяна наконец произошло: у него родился сын! Однако, безмятежное счастье главы семьи было недолгим: помогать ухаживать за малышом приезжает мама Наташи Людмила Сергеевна. Сколько пробудет Людмила Сергеевна в доме Магикян и кто же одержит верх в борьбе за звание главы семьи?

Реклама: Нет.



Sample

Качество: WEBRip - Files-x
Формат: AVI
Видео кодек: XviD
Аудио кодек: AC3
Видео: 720x400 (1.80:1), 25 fps, XviD build 73 ~1550 kbps avg, 0.215 bit/pixel
Аудио: 48.0 kHz, AC3 Dolby Digital, 2/0 (L,R) ch, ~ 192 kbps
General
Complete name : D:\Poslednij.iz.mogikian.4.2015.WEB-DLRip.Files-x\01.Poslednij.iz.mogikian.4.2015.WEB-DLRip.Files-x.avi
Format : AVI
Format/Info : Audio Video Interleave
File size : 301 MiB
Duration : 23mn 59s
Overall bit rate : 1 752 Kbps
Writing application : VirtualDubMod 1.5.10.3 | www.virtualdub-fr.org || (build 2550/release)
Writing library : VirtualDubMod build 2550/release

Video
ID : 0
Format : MPEG-4 Visual
Format profile : Advanced [email protected]
Format settings, BVOP : 1
Format settings, QPel : No
Format settings, GMC : No warppoints
Format settings, Matrix : Custom
Codec ID : XVID
Codec ID/Hint : XviD
Duration : 23mn 59s
Bit rate : 1 550 Kbps
Width : 720 pixels
Height : 400 pixels
Display aspect ratio : 16:9
Frame rate : 25.000 fps
Color space : YUV
Chroma subsampling : 4:2:0
Bit depth : 8 bits
Scan type : Progressive
Compression mode : Lossy
Bits/(Pixel*Frame) : 0.215
Stream size : 266 MiB (88%)
Writing library : XviD 73

Audio
ID : 1
Format : AC-3
Format/Info : Audio Coding 3
Mode extension : CM (complete main)
Format settings, Endianness : Big
Codec ID : 2000
Duration : 23mn 59s
Bit rate mode : Constant
Bit rate : 192 Kbps
Channel count : 2 channels
Channel positions : Front: L R
Sampling rate : 48.0 KHz
Bit depth : 16 bits
Compression mode : Lossy
Stream size : 32.9 MiB (11%)
Alignment : Split accross interleaves
Interleave, duration : 40 ms (1.00 video frame)
Interleave, preload duration : 500 ms


Трекер:  [ 09-Фев-2018 13:48 ]

  

Скачать .torrent

Размер .torrent файла 31 KB


Размер: 5.87 GB
Хэш (hash) релиза: 77e06eb7a7f9e83eef450b3ef30a8afdc03470c1
Подписка на обновления:

Еще никто не оставлял запись к записи скачать торрент Последний из Магикян Сезон: 4 . Будь первым!

!Обратная связь