Chris Sheffield
Joe Adler

Скачать через торрент Ублюдок! Сокрушитель тьмы Bastard! Destroyer of Darkness бесплатно Аниме Все серии на русском torrent

Если у вас наблюдаются проблемы со скриншотами, переходом по ссылками, скачиванием торрентов - проблемы в блокировщике рекламы AdBlock. #хорошегоДня!


Статистика раздачи
Размер:  670 MB   |    Зарегистрирован:  14 дней   |    .torrent скачан:  36 раз   |   
Раздают:  1  
   
Загрузка...
 
Автор Сообщение

Galfimbul

avatar Galfimbul


Ублюдок! Сокрушитель тьмы / Bastard! Destroyer of Darkness

Год выпуска: 1992
Страна: Япония
Жанр: фэнтези, приключения, мистика, эротика
Продолжительность: OAV (6 эпизодов), 26 мин
Перевод: Профессиональный (одноголосый)
Режиссер: Акияма Кацухито
Описание: Эпизоды:

01. The Exploder Wizard
02. Fire Elemental Efreet
03. Ninja Master Gara
04. The Immortal King Di-Amon
05. Thunder Empress Arshes Nei
06. The Revival of Dark Schneider

-------
скрины http://www.world-art.ru/animation/galery.php?id=18
Доп. информация: первая часть в виде 1 файла (в нем соединены первые 3 OVA)
2 дорожки: 1) англ+рус. дуб. (озвучка от Digital Force) / 2)англ.
так же встоенные неотключаемые анл субтитры

МОЖЕТ ПОТРЕБОВАТЬСЯ VLC CODEC

Качество: TVRip
Формат: AVI
Видео кодек: DivX
Аудио кодек: MP3
Видео: 512x384 / 24 fps
Аудио: 48kHz / 192 kbps
General
Complete name : D:\Down\Bastard_1.avi
Format : AVI
Format/Info : Audio Video Interleave
File size : 670 MiB
Duration : 1h 17mn
Overall bit rate : 1 211 Kbps

Video
ID : 0
Format : MPEG-4 Visual
Format settings, BVOP : Yes
Format settings, QPel : No
Format settings, GMC : No warppoints
Format settings, Matrix : Default (H.263)
Codec ID : DIVX
Codec ID/Info : Project Mayo
Codec ID/Hint : DivX 4
Duration : 1h 17mn
Bit rate : 821 Kbps
Width : 512 pixels
Height : 384 pixels
Display aspect ratio : 4:3
Frame rate : 23.976 fps
Color space : YUV
Chroma subsampling : 4:2:0
Bit depth : 8 bits
Scan type : Progressive
Compression mode : Lossy
Bits/(Pixel*Frame) : 0.174
Stream size : 454 MiB (68%)

Audio #1
ID : 1
Format : MPEG Audio
Format version : Version 1
Format profile : Layer 3
Codec ID : 55
Codec ID/Hint : MP3
Duration : 1h 17mn
Bit rate mode : Constant
Bit rate : 192 Kbps
Channel(s) : 2 channels
Sampling rate : 48.0 KHz
Compression mode : Lossy
Stream size : 106 MiB (16%)
Alignment : Split accross interleaves
Interleave, duration : 961 ms (23.05 video frames)

Audio #2
ID : 2
Format : MPEG Audio
Format version : Version 1
Format profile : Layer 3
Codec ID : 55
Codec ID/Hint : MP3
Duration : 1h 17mn
Bit rate mode : Constant
Bit rate : 192 Kbps
Channel(s) : 2 channels
Sampling rate : 48.0 KHz
Compression mode : Lossy
Stream size : 106 MiB (16%)
Alignment : Split accross interleaves
Interleave, duration : 961 ms (23.05 video frames)


Трекер:  [ 09-Фев-2018 13:30 ]

  

Скачать .torrent

Размер .torrent файла 13 KB


Размер: 670 MB
Хэш (hash) релиза: 526961e8ff0279b919b43eb009c418610b4299ab
Подписка на обновления:

Торренты, похожие на Ублюдок! Сокрушитель тьмы Bastard! Destroyer of Darkness скачать торрент

Форум Название Автор Размер S L Добавлен
Аниме | Rips ·· Ублюдок! Сокрушитель тьмы / Bastard! Destroyer of Darkness [OVA][1-06 из 06][RUS+JAP+ENG][1992 г., фэнтези, приключения, мистика, эротика, DVDRip][Любительская] azuraer 16109695791.5 GB 0 0 1290021879

22:24

17-Ноя-10

Еще никто не оставлял запись к записи скачать торрент Ублюдок! Сокрушитель тьмы Bastard! Destroyer of Darkness . Будь первым!

!Обратная связь