The Pill 2011 720p HDRiP AC3 2.0 x264-SiC | LINE TV Surplines Super Junior | El Alienista

Скачать через торрент Последний из Магикян Сезон: 3 Фильм бесплатно в хорошем качестве torrent

Скачивайте на UnionPeer.org фильмы через торрент без регистрации. Новинки кино в хорошем качестве через торрент. На UnionPeer.org можно скачать через торрент фильмы 2014 и 2015 годов. Самые новые фильмы.

Скачать торрент Последний из Магикян Сезон: 3 бесплатно через .torrent фильм мультфильм сериал

Статистика раздачи
Размер:  3.94 GB   |    Зарегистрирован:  3 месяца 16 дней   |    .torrent скачан:  24 раза   |   
Раздают:  1  
   
загрузка...
 
Автор Сообщение

Galfimbul

avatar Galfimbul


Последний из Магикян

Год выпуска: 2014
Производство: Yellow, Black & White
Жанр: комедия, семейный
Продолжительность: ~00:24:00 серия
Субтитры: нет

Режиссёр: Резо Гигинеишвили, Акаки Сахелашвили

В ролях: Грант Тохатян, Анна Ардова, Элен Касьяник, Алина Гринберг, Луиза-Габриэла Бровина, Андрей Бурковский, Темико Чичинадзе, Александр Феклистов, Наталия Вдовина

Описание: Удивительная история интернациональной любви и дружбы возвращается на СТС! Самый добрый и обаятельный владелец автосервиса в Москве — Карен Магикян — готов на все ради своих близких. В первом сезоне сериала он смирился с фактом, что у его дочери будет русский жених. Во втором — нашел общий язык со своенравными родителями будущего зятя. Неужели за эти подвиги в новом сезоне Карена ждет воплощение заветной мечты всей жизни? Наконец-то славные деды Ваган и Гурген перестанут упрекать Карена за то, что его дети не могут носить чуху и владеть кинжалом? У Маринэ, Вики и Ануш появится братик? А «последний из Магикян» станет «предпоследним»?!

Реклама: Нет.



Sample

Качество: WEBRip
Формат: AVI
Видео кодек: XviD
Аудио кодек: MP3
Видео: 720x400 (1.80:1), 25 fps, XviD build 73 ~1800 kbps avg, 0.250 bit/pixel
Аудио: 48 kHz, MPEG Layer 3, 2 ch, ~128.00 kbps avg
General
Complete name : D:\Posledniy.iz.magekyan.S3.WEB-DLRip\01 серия.avi
Format : AVI
Format/Info : Audio Video Interleave
File size : 340 MiB
Duration : 24mn 32s
Overall bit rate : 1 934 Kbps
Writing application : VirtualDubMod 1.5.10.3 | www.virtualdub-fr.org || (build 2550/release)
Writing library : VirtualDubMod build 2550/release

Video
ID : 0
Format : MPEG-4 Visual
Format profile : Advanced [email protected]
Format settings, BVOP : 1
Format settings, QPel : No
Format settings, GMC : No warppoints
Format settings, Matrix : Custom
Codec ID : XVID
Codec ID/Hint : XviD
Duration : 24mn 32s
Bit rate : 1 796 Kbps
Width : 720 pixels
Height : 400 pixels
Display aspect ratio : 16:9
Frame rate : 25.000 fps
Color space : YUV
Chroma subsampling : 4:2:0
Bit depth : 8 bits
Scan type : Progressive
Compression mode : Lossy
Bits/(Pixel*Frame) : 0.250
Stream size : 315 MiB (93%)
Writing library : XviD 1.2.1 (UTC 2008-12-04)

Audio
ID : 1
Format : MPEG Audio
Format version : Version 1
Format profile : Layer 3
Codec ID : 55
Codec ID/Hint : MP3
Duration : 24mn 32s
Bit rate mode : Constant
Bit rate : 128 Kbps
Channel count : 2 channels
Sampling rate : 48.0 KHz
Compression mode : Lossy
Stream size : 22.5 MiB (7%)
Alignment : Aligned on interleaves
Interleave, duration : 40 ms (1.00 video frame)
Interleave, preload duration : 504 ms
Writing library : LAME3.99r
Encoding settings : -m s -V 4 -q 2 -lowpass 17 -b 128


Трекер:  [ 09-Фев-2018 13:18 ]

  

Скачать .torrent

Размер .torrent файла 20 KB


Размер: 3.94 GB
Хэш (hash) релиза: 8707d50520cd8563bd878d9c707840c36daa2859
Подписка на обновления:

Еще никто не оставлял запись к записи скачать торрент Последний из Магикян Сезон: 3 . Будь первым!

!Обратная связь