Питер Уэллер
Т.Дж. Скотт

Скачать через торрент Громозека Фильм бесплатно в хорошем качестве torrent

Скачивайте на UnionPeer.org фильмы через торрент без регистрации. Новинки кино в хорошем качестве через торрент. На UnionPeer.org можно скачать через торрент фильмы 2014 и 2015 годов. Самые новые фильмы.

Скачать торрент Громозека бесплатно через .torrent фильм мультфильм сериал

Если у вас наблюдаются проблемы со скриншотами, переходом по ссылками, скачиванием торрентов - проблемы в блокировщике рекламы AdBlock. #хорошегоДня!


Статистика раздачи
Размер:  1.84 GB   |    Зарегистрирован:  14 дней   |    .torrent скачан:  35 раз   |   
Раздают:  1  
   
Загрузка...
 
Автор Сообщение

Galfimbul

avatar Galfimbul


Громозека

Жанр: Драма
Год выпуска: 2010
Продолжительность: 01:43:32
Режиссёр: Владимир Котт

В ролях: Николай Добрынин, Борис Каморзин, Леонид Громов, Евгения Добровольская, Полина Филоненко, Дарья Семенова, Ольга Онищенко, Донатас Грудович, Тимофей Трибунцев, Андрей Лебедев
Описание: Милиционер Громов, врач Каминский и таксист Мозеров — одноклассники. Когда-то они вместе играли в школьном ансамбле «ГРОМОЗЕКА», были любимцами школьников и грозой учителей. Теперь им около сорока, и с каждым жизнь обошлась по-своему жестко: у одного погиб маленький пациент, другому изменяет жена, дочь третьего снимается в порнофильмах. Их пути не пересекаются. Но на вечере выпускников участники «ГРОМОЗЕКИ» снова собираются вместе, чтобы исполнить хиты восьмидесятых…


Релиз от:
Сэмпл: http://multi-up.com/1186448

Качество видео: DVDRip-AVC
Формат видео: MKV

Видео: [email protected] (16:9), 25 fps, MPEG-4 AVC ~1 824 kbps avg, 0.178 bit/pixel
Аудио: 48 kHz, AC3 Dolby Digital, 6 ch, ~448 kbps avg / Rus
Аудио: 48 kHz, AC3 Dolby Digital, 2 ch, ~224 kbps avg / International
Общее
Уникальный идентификатор : 190117386197827768777367290734690177433 (0x8F0746D5FD03B3F0907CD1093C041199)
Полное имя : D:\Громозека_2011-DVDRip-AVC_KORSAR.mkv
Формат : Matroska
Размер файла : 1,84 Гбайт
Продолжительность : 1 ч. 43 м.
Общий поток : 2546 Кбит/сек
Название фильма : Громозека_2011-DVDRip-AVC_KORSAR
Дата кодирования : UTC 2017-10-23 13:35:33
Программа кодирования : mkvmerge v5.8.0 ('No Sleep / Pillow') built on Sep 2 2012 15:37:04
Библиотека кодирования : libebml v1.2.3 + libmatroska v1.3.0

Видео
Идентификатор : 1
Формат : AVC
Формат/Информация : Advanced Video Codec
Профиль формата : [email protected]
Параметр CABAC формата : Да
Параметр ReFrames формата : 14 кадры
Идентификатор кодека : V_MPEG4/ISO/AVC
Продолжительность : 1 ч. 43 м.
Битрейт : 1824 Кбит/сек
Ширина : 720 пикс.
Высота : 568 пикс.
Соотношение сторон : 16:9
Частота кадров : 25,000 кадр/сек
Цветовое пространство : YUV
Подвыборка цветности : 4:2:0
Битовая глубина : 8 бит
Тип развёртки : Прогрессивная
Бит/(Пиксели*Кадры) : 0.178
Размер потока : 1,32 Гбайт (72%)
Библиотека кодирования : x264 core 148 r2744kMod b97ae06
Настройки программы : cabac=1 / ref=14 / deblock=1:-2:-1 / analyse=0x3:0x133 / me=umh / subme=10 / psy=1 / fade_compensate=0.00 / psy_rd=1.05:0.10 / mixed_ref=1 / me_range=36 / chroma_me=1 / trellis=2 / 8x8dct=1 / cqm=0 / deadzone=21,11 / fast_pskip=1 / chroma_qp_offset=-3 / threads=12 / lookahead_threads=3 / sliced_threads=0 / nr=0 / decimate=1 / interlaced=0 / bluray_compat=0 / constrained_intra=0 / bframes=10 / b_pyramid=2 / b_adapt=2 / b_bias=0 / direct=1 / weightb=1 / open_gop=0 / weightp=2 / keyint=250 / keyint_min=25 / scenecut=40 / intra_refresh=0 / rc=crf / mbtree=0 / crf=18.0000 / qcomp=0.63 / qpmin=0 / qpmax=39 / qpstep=4 / ip_ratio=1.40 / pb_ratio=1.30 / aq=2:1.00
Язык : English
Основные цвета : BT.470-6 System B, BT.470-6 System G, BT.601-6 625, BT.1358 625, BT.1700 625 PAL, BT.1700 625 SECAM
Характеристики трансфера : BT.470-6 System B, BT.470-6 System G
Коэффициенты матрицы : BT.470-6 System B, BT.470-6 System G, BT.601-6 625, BT.1358 625, BT.1700 625 PAL, BT.1700 625 SECAM, IEC 61966-2-4 601

Аудио #1
Идентификатор : 2
Формат : AC-3
Формат/Информация : Audio Coding 3
Расширение режима : CM (complete main)
Идентификатор кодека : A_AC3
Продолжительность : 1 ч. 43 м.
Вид битрейта : Постоянный
Битрейт : 448 Кбит/сек
Канал(ы) : 6 канала(ов)
Расположение каналов : Front: L C R, Side: L R, LFE
Частота : 48,0 КГц
Битовая глубина : 16 бит
Метод сжатия : С потерями
Размер потока : 332 Мбайт (18%)
Язык : Russian

Аудио #2
Идентификатор : 3
Формат : AC-3
Формат/Информация : Audio Coding 3
Расширение режима : CM (complete main)
Идентификатор кодека : A_AC3
Продолжительность : 1 ч. 43 м.
Вид битрейта : Постоянный
Битрейт : 224 Кбит/сек
Канал(ы) : 2 канала(ов)
Расположение каналов : Front: L R
Частота : 48,0 КГц
Битовая глубина : 16 бит
Метод сжатия : С потерями
Размер потока : 166 Мбайт (9%)
Язык : Russian


Трекер:  [ 08-Фев-2018 18:54 ]

  

Скачать .torrent

Размер .torrent файла 19 KB


Размер: 1.84 GB
Хэш (hash) релиза: 59dd48044f2b83d3fff4de9666db643e6c34c85c
Подписка на обновления:

Торренты, похожие на Громозека скачать торрент

Форум Название Автор Размер S L Добавлен
Российские фильмы до 2016 ·· Громозека (Владимир Котт) [2010 г., драма, IPTVRIP] L 14627942401.36 GB 0 0 1298574090

22:01

24-Фев-11

Еще никто не оставлял запись к записи скачать торрент Громозека . Будь первым!

!Обратная связь