Zac Beresford | VMware Workstation Pro | انتقام السلاطين

Скачать через торрент Полёт бабочки Сезон: 1 Фильм бесплатно в хорошем качестве torrent

Скачивайте на UnionPeer.org фильмы через торрент без регистрации. Новинки кино в хорошем качестве через торрент. На UnionPeer.org можно скачать через торрент фильмы 2014 и 2015 годов. Самые новые фильмы.

Скачать торрент Полёт бабочки Сезон: 1 бесплатно через .torrent фильм мультфильм сериал

Статистика раздачи
Размер:  2.6 GB   |    Зарегистрирован:  6 месяцев   |    .torrent скачан:  61 раз   |   
Раздают:  1  
   
загрузка...
 
Автор Сообщение

Galfimbul

avatar Galfimbul


Полёт бабочки
Год выпуска: 2013
Производство: «Star Media»
Жанр: Мелодрама
Продолжительность: ~ 46 мин.
Субтитры: Отсутствуют
Режиссер: Николай Михайлов (III)
В ролях: Борис Хвошнянский, Елена Радевич, Павел Баршак, Виктория Малекторович, София Стеценко, Константин Чернокрылюк, Александр Кобзарь, Сергей Стрельников, Станислав Боклан, Лариса Кадочникова, Давид Бабаев, Нина Антонова, Сергей Озиряный и др.
Описание: Известный антиквар Андрей Ковалевский знакомится в самолёте с молодой эффектной женщиной Светланой и её десятилетней дочкой Галей. Светлана рассказывает печальную историю о том, что она сбежала от мужа, который хочет отобрать у неё дочь и оставил без средств к существованию. В своём стремлении помочь несчастной женщине Андрей готов на многое...



Релиз группы
Источник рипа от Серый1779
Семпл
Кино-Театр
Качество: HDTVRip
Формат: AVI
Видео кодек: XviD
Аудио кодек: MP3
Видео: 720x400 (1.80:1), 25 fps, XviD build 73 ~1899 kbps avg, 0.26 bit/pixel
Аудио: 48 kHz, MPEG Layer 3, 2 ch, ~128.00 kbps avg
Общее
Полное имя                               : D:\Полет бабочки\Polet babochki.S01E01.2013.HDTVRip.RG.Russkie.serialy.avi
Формат                                   : AVI
Формат/Информация                        : Audio Video Interleave
Размер файла                             : 669 Мбайт
Продолжительность                        : 45 м. 54 с.
Общий поток                              : 2038 Кбит/сек
Программа кодирования                    : VirtualDubMod 1.5.10.3 | www.virtualdub-fr.org || (build 2550/release)
Библиотека кодирования                   : VirtualDubMod build 2550/release

Видео
Идентификатор                            : 0
Формат                                   : MPEG-4 Visual
Профиль формата                          : Advanced [email protected]
Настройки формата                        : BVOP2 / Custom Matrix
Параметр BVOP формата                    : 2
Параметр QPel формата                    : Нет
Параметр GMC формата                     : Без точки перехода
Параметр матрицы формата                 : Выборочная
Идентификатор кодека                     : XVID
Идентификатор кодека/Подсказка           : XviD
Продолжительность                        : 45 м. 54 с.
Битрейт                                  : 1900 Кбит/сек
Ширина                                   : 720 пикселей
Высота                                   : 400 пикселей
Соотношение сторон                       : 16:9
Частота кадров                           : 25,000 кадров/сек
Цветовое пространство                    : YUV
Субдискретизация насыщенности            : 4:2:0
Битовая глубина                          : 8 бит
Тип развёртки                            : Прогрессивная
Метод сжатия                             : С потерями
Бит/(Пиксели*Кадры)                      : 0.264
Размер потока                            : 624 Мбайт (93%)
Библиотека кодирования                   : XviD 73

Аудио
Идентификатор                            : 1
Формат                                   : MPEG Audio
Версия формата                           : Version 1
Профиль формата                          : Layer 3
Идентификатор кодека                     : 55
Идентификатор кодека/Подсказка           : MP3
Продолжительность                        : 45 м. 54 с.
Вид битрейта                             : Постоянный
Битрейт                                  : 128 Кбит/сек
Каналы                                   : 2 канала
Частота                                  : 48,0 КГц
Частота кадров                           : 41,667 кадра/сек (1152 SPF)
Метод сжатия                             : С потерями
Размер потока                            : 42,0 Мбайт (6%)
Выравнивание                             : Соединение по промежуткам
Продолжительность промежутка             : 40  мс. (1,00 видеокадр)
Время предзагрузки промежутка            : 504  мс.
Библиотека кодирования                   : LAME3.99r
Настройки программы                      : -m s -V 4 -q 2 -lowpass 17 -b 128


Трекер:  [ 08-Фев-2018 18:48 ]

  

Скачать .torrent

Размер .torrent файла 13 KB


Размер: 2.6 GB
Хэш (hash) релиза: e07babca08d900b7011185afb3ceaa089d0924fa
Подписка на обновления:

Еще никто не оставлял запись к записи скачать торрент Полёт бабочки Сезон: 1 . Будь первым!

!Обратная связь