Cadillac Homes
The Bachelor Point Harbor

Скачать через торрент Зоология Фильм бесплатно в хорошем качестве torrent

Скачивайте на UnionPeer.org фильмы через торрент без регистрации. Новинки кино в хорошем качестве через торрент. На UnionPeer.org можно скачать через торрент фильмы 2014 и 2015 годов. Самые новые фильмы.

Скачать торрент Зоология бесплатно через .torrent фильм мультфильм сериал

Если у вас наблюдаются проблемы со скриншотами, переходом по ссылками, скачиванием торрентов - проблемы в блокировщике рекламы AdBlock. #хорошегоДня!


Статистика раздачи
Размер:  1.45 GB   |    Зарегистрирован:  16 дней   |    .torrent скачан:  22 раза   |   
Раздают:  1  
   
Загрузка...
 
Автор Сообщение

Galfimbul

avatar Galfimbul



Зоология
Жанр: драма, фантастика
Год выпуска: 2016
Продолжительность: 01:30:45
Режиссёр: Иван И. Твердовский
В ролях: Наталья Павленкова, Дмитрий Грошев, Ирина Чипиженко, Маша Токарева, Александр Горчилин, Нина Свиридова, Владимир Сергеев, Валентина Попова, юдмила Шестакова, Юлия Пимкина

Описание: Наташа живет вдвоем с матерью в небольшом приморском городке. Жизнь ее скучна и размеренна. В зоопарке, где она работает, Наташа уже давно стала объектом для насмешек. Но внезапно с ней происходит странная метаморфоза — ни с того, ни с сего у нее вырастает хвост. Ей предстоит пройти через стыд, надежду и отчаяние, чтобы обрести себя.
| Сэмпл | IMDB | КиноПоиск |
Автор рипа: sociolog_melvas
Качество видео: BDRip (источник)
Формат видео: AVI

Видео: 704x384 (1.83:1), 23,976 fps, XviD build 67 ~1833 kbps avg, 0.28 bit/pixel
Аудио: 48 kHz, AC3 Dolby Digital, 3/2 (L,C,R,l,r) + LFE ch, ~448 kbps avg
Общее
Полное имя : D:\torrents\Zoologiya.2016.RUS.BDRip.XviD.AC3.-HQCLUB.avi
Формат : AVI
Формат/Информация : Audio Video Interleave
Размер файла : 1,45 Гбайт
Продолжительность : 1 ч. 30 м.
Общий поток : 2290 Кбит/сек
Название фильма : Зоология (2016) BDRip
Жанр : драма, фантастика
Программа кодирования : VirtualDubMod 1.5.10.2 (build 2540/release)
Примечание : 08.02.2018

Видео
Идентификатор : 0
Формат : MPEG-4 Visual
Профиль формата : Advanced [email protected]
Параметр BVOP формата : 1
Параметр QPel формата : Нет
Параметр GMC формата : Без точки перехода
Параметр матрицы формата : Выборочная
Идентификатор кодека : XVID
Идентификатор кодека/Подсказка : XviD
Продолжительность : 1 ч. 30 м.
Битрейт : 1833 Кбит/сек
Ширина : 704 пикселя
Высота : 384 пикселя
Соотношение сторон : 1,85:1
Частота кадров : 23,976 (24000/1001) кадра/сек
Цветовое пространство : YUV
Субдискретизация насыщенности : 4:2:0
Битовая глубина : 8 бит
Тип развёртки : Прогрессивная
Метод сжатия : С потерями
Бит/(Пиксели*Кадры) : 0.283
Размер потока : 1,16 Гбайт (80%)
Библиотека кодирования : XviD 67

Аудио
Идентификатор : 1
Формат : AC-3
Формат/Информация : Audio Coding 3
Параметр Endianness формата : Big
Идентификатор кодека : 2000
Продолжительность : 1 ч. 30 м.
Вид битрейта : Постоянный
Битрейт : 448 Кбит/сек
Каналы : 6 каналов
Расположение каналов : Front: L C R, Side: L R, LFE
Частота : 48,0 КГц
Частота кадров : 31,250 кадров/сек (1536 spf)
Битовая глубина : 16 бит
Метод сжатия : С потерями
Размер потока : 291 Мбайт (20%)
Выравнивание : Разделение по промежуткам
Продолжительность промежутка : 42 мс. (1,00 видеокадр)
Время предзагрузки промежутка : 500 мс.
ServiceKind/String : Complete Main


Трекер:  [ 08-Фев-2018 17:54 ]

  

Скачать .torrent

Размер .torrent файла 15 KB


Размер: 1.45 GB
Хэш (hash) релиза: dbd7c69faba918b8ad41941f397e3fbb08d795ae
Подписка на обновления:

Торренты, похожие на Зоология скачать торрент

Форум Название Автор Размер S L Добавлен
Российские фильмы 2016-2018 (Новинки русского кино) ·· Зоология (Иван И. Твердовский) [2016, Драма, фантастика, арт-хаус, WEB-DL 720p] iTunes Galfimbul 29912318562.79 GB 0 0 1482570574

12:09

24-Дек-16

Российские фильмы 2016-2018 (Новинки русского кино) ·· Зоология (Иван И. Твердовский) [2016, Драма, фантастика, арт-хаус, WEB-DL 1080p] iTunes Galfimbul 37605855883.5 GB 0 0 1482570570

12:09

24-Дек-16

Российские фильмы 2016-2018 (Новинки русского кино) ·· Зоология (Иван И. Твердовский) [2016, Драма, фантастика, арт-хаус, WEB-DLRip] iTunes Galfimbul 781894780746 MB 0 0 1482569186

11:46

24-Дек-16

Документальные фильмы и телепередачи ·· Смертоносные существа: В морских джунглях / Blue wilderness (Ричард Деннисон / Richard Dennison) [1992, Австралия, документальный, научно-познавательный, зоология, природа, животные, VHSRip] DVO (Фортуна-Фильм) Galfimbul 12895724871.2 GB 0 0 1454679916

16:45

5-Фев-16

Документальные фильмы и телепередачи ·· BBC. Планета. Африка / BBC. Earth. Africa (Катрина Бартлам / Katrina Bartlam, Фелисити Эгертон / Felicity Egerton) [2013, Документальный, дикая природа, зоология, научно-познавательный, HDRip] Galfimbul 75599464037.04 GB 0 0 1382734030

23:47

25-Окт-13

Документальные фильмы и телепередачи ·· Африка / Africa (Катрина Бартлам / Katrina Bartlam, Фелисити Эгертон / Felicity Egerton) [2013, Документальный, дикая природа, зоология, научно-познавательный, BDRip 720p] (1 - 2 серии из 6) BBC Galfimbul 73771275606.87 GB 0 0 1364934964

23:36

2-Апр-13

Документальные фильмы и телепередачи ·· Африка / Africa (Катрина Бартлам / Katrina Bartlam, Фелисити Эгертон / Felicity Egerton) [2013, Документальный, дикая природа, зоология, научно-познавательный, BDRip 1080p] (1 - 2 серии из 6) BBC Galfimbul 2065145335219.23 GB 0 0 1364934955

23:35

2-Апр-13

Документальные фильмы и телепередачи ·· Африка / Africa (Катрина Бартлам / Katrina Bartlam, Фелисити Эгертон / Felicity Egerton) [2013, Документальный, дикая природа, зоология, научно-познавательный, Blu-ray disc (custom)] {1/3-Disc Edition} (1 - 2 серии из 6) BBC Galfimbul 4064161017637.85 GB 0 0 1364201528

11:52

25-Мар-13

Документальные фильмы и телепередачи ·· Городские чудовища / Suburban Monsters (Джоэль Аллен, Кевин Башар) [2010, Документальный, зоология, природа, SATRip] damien1990 567468032541 MB 0 0 1363532456

18:00

17-Мар-13

Документальные фильмы и телепередачи ·· Планета. Африка / Earth. Africa (Катрина Бартлам, Фелисити Эгертон) [2013, Документальный, дикая природа, зоология, научно-познавательный, BDRip 1080p] (1 серия из 6) BBC damien1990 1129572197910.52 GB 0 0 1363283682

20:54

14-Мар-13

Документальные фильмы и телепередачи ·· Планета. Африка / Earth. Africa (Катрина Бартлам, Фелисити Эгертон) [2013, Документальный, дикая природа, зоология, научно-познавательный, BDRip 720p] (1 серия из 6) BBC L 36871490453.43 GB 0 0 1363121032

23:43

12-Мар-13

Документальные фильмы и телепередачи ·· Шимпанзе / Chimpanzee (Аластер Фовергилл, Марк Линфилд) [2012, Документальный, научно-познавательный, природа, биология, зоология, исследование, Blu-Ray 1080p] Galfimbul 4010194574137.35 GB 0 0 1349433420

13:37

5-Окт-12

Еще никто не оставлял запись к записи скачать торрент Зоология . Будь первым!

!Обратная связь