Comedy Big League 5 - Ep 247
Men in Black Box - Ep 80

Скачать через торрент [ATV3] Три богатыря и принцесса Египта бесплатно русская версия torrent активатор

Если у вас наблюдаются проблемы со скриншотами, переходом по ссылками, скачиванием торрентов - проблемы в блокировщике рекламы AdBlock. #хорошегоДня!


Статистика раздачи
Размер:  2.72 GB   |    Зарегистрирован:  16 дней   |    .torrent скачан:  57 раз   |   
Раздают:  3  
   
Загрузка...
 
Автор Сообщение

Galfimbul

avatar Galfimbul


Три богатыря и принцесса Египта
«Грабим пирамиды!»

5.241 / 10 4.00 / 10
Год выпуска: 2017
Страна: Россия
Жанр: Мультфильм, приключения, семейный, фэнтези
Продолжительность: 01:08:43

Перевод: (Не требуется)
Оригинальная аудиодорожка: Есть
Cубтитры: Нет
Режиссёр: Константин Феоктистов
Сценарий: Александр Боярский, Светлана Саченко
Продюсер: Сергей Сельянов, Александр Боярский
В ролях: Олег Куликович, Валерий Соловьев, Дмитрий Быковский-Ромашов, Сергей Маковецкий, Дмитрий Высоцкий, Александр Быковский, Елена Шульман, Лия Медведева, Мария Цветкова-Овсянникова, Анатолий Петров

Сборы в России: $14 375 584

Мировая премьера: 29 декабря 2017
Премьера (РФ): 28 декабря 2017, «Наше Кино»

Цифровой релиз: 30 января 2018, «СТВ»

Описание: В новогоднюю ночь, в то время, как Князь готовится произнести торжественную речь, а Юлий распаковывает подарки и следит за приготовлением праздничного стола, богатыри едут в гости к Алёше и встречают там странного товарища по имени Дурило. Оказывается, это тринадцатый месяц, который никому особенно не нужен, и который пытается осуществить своё заветное желание — стать самым главным месяцем в году. Только и надо ему, что притвориться Дедом Морозом, показать доверчивому Алёше пару фокусов, подружиться с богатырями и оказаться в Египте — стране фараонов и древних пирамид. А дальше — пирамиды, заклинание, Древний огонь — и дело в шляпе! Но не так-то просто осуществить своё коварное желание, когда на пути у тебя встают не только три богатыря, но и их жёны, Князь и Юлий, Змей Горыныч и Дед Мороз и даже — сама принцесса Нефертити!
Качество исходника: WEB-DL 1080p (NNMClub)
Качество: WEB-DL
Тип: HD (1080p)
Контейнер: M4V
Видео: H.264, 1920x1080, 16:9, 5 110 Kbps, 25.000 fps

Аудио 1: Русский/Оригинальная дорожка , AAC / 2.0 / 160 Kbps / 48.0 KHz
Аудио 2: Русский/Оригинальная дорожка , AC-3 / 5.1 / 384 Kbps / 48.0 KHz
Sort Name: Три богатыря и принцесса Египта
XID: Apple:vendor_id:2017-1038154
contentID: 1329492007
Copyright: © 2017 Кинокомпания СТВ, студия анимационного кино "Мельница"
Screenwriters: Александр Боярский, Светлана Саченко
Producers: Сергей Сельянов, Александр Боярский
Director: Константин Феоктистов
Cast: Олег Куликович, Валерий Соловьев, Дмитрий Быковский-Ромашов, Сергей Маковецкий, Дмитрий Высоцкий, Александр Быковский, Елена Шульман, Лия Медведева, Мария Цветкова-Овсянникова, Анатолий Петров
Studio: Кинокомпания СТВ, Анимационная студия Мельница
Rating: 133
Long Description: В новогоднюю ночь, в то время, как Князь готовится произнести торжественную речь, а Юлий распаковывает подарки и следит за приготовлением праздничного стола, богатыри едут в гости к Алёше и встречают там странного товарища по имени Дурило. Оказывается, это тринадцатый месяц, который никому особенно не нужен, и который пытается осуществить своё заветное желание - стать самым главным месяцем в году. Только и надо ему, что притвориться Дедом Морозом, показать доверчивому Алёше пару фокусов, подружиться с богатырями и оказаться в Египте - стране фараонов и древних пирамид. А дальше - пирамиды, заклинание, Древний огонь - и дело в шляпе! Но не так-то просто осуществить своё коварное желание, когда на пути у тебя встают не только три богатыря, но и их жёны, Князь и Юлий, Змей Горыныч и Дед Мороз и даже - сама принцесса Нефертити!
Description: В новогоднюю ночь, в то время, как Князь готовится произнести торжественную речь, а Юлий распаковывает подарки и следит за приготовлением праздничного стола, богатыри едут в гости к Алёше и встречают там странного товарища по имени Дурило. Оказывается, это тринадцатый месяц, который пытается осуществить своё заветное желание - стать самым главным месяцем в году...
Release Date: 2017-12-29T08:00:00Z
Genre: Kids & Family
Artist: Константин Феоктистов
Name: Три богатыря и принцесса Египта
General
Complete name : /Users/imac/HandBrake/Tri.bogatyrya.i.printsessa.Egipta.WEB-DL.1080p.m4v
Format : MPEG-4
Codec ID : M4V
File size : 2.72 GiB
Duration : 1h 8mn
Overall bit rate mode : Variable
Overall bit rate : 5 660 Kbps
Movie name : Три богатыря и принцесса Египта
Performer : Константин Феоктистов
Director : Константин Феоктистов
Actor : Олег Куликович / Валерий Соловьев / Дмитрий Быковский-Ромашов / Сергей Маковецкий / Дмитрий Высоцкий / Александр Быковский / Елена Шульман / Лия Медведева / Мария Цветкова-Овсянникова / Анатолий Петров
Screenplay by : Александр Боярский / Светлана Саченко
Producer : Сергей Сельянов / Александр Боярский
Production studio : Кинокомпания СТВ, Анимационная студия Мельница
Genre : Kids & Family
ContentType : Short Film
Description : В новогоднюю ночь, в то время, как Князь готовится произнести торжественную речь, а Юлий распаковывает подарки и следит за приготовлением праздничного стола, богатыри едут в гости к Алёше и встречают там странного товарища по имени Дурило. Оказывается, это тринадцатый месяц, который пытается осуществить своё заветное желание - стать самым главным месяцем в году...
Recorded date : UTC 2017-12-29 08:00:00
Encoded date : UTC 2018-02-08 09:42:51
Tagged date : UTC 2018-02-08 09:43:36
Copyright : © 2017 Кинокомпания СТВ, студия анимационного кино "Мельница"
Cover : Yes
Rating : None
Title/Sort : Три богатыря и принцесса Египта
LongDescription : В новогоднюю ночь, в то время, как Князь готовится произнести торжественную речь, а Юлий распаковывает подарки и следит за приготовлением праздничного стола, богатыри едут в гости к Алёше и встречают там странного товарища по имени Дурило. Оказывается, это тринадцатый месяц, который никому особенно не нужен, и который пытается осуществить своё заветное желание - стать самым главным месяцем в году. Только и надо ему, что притвориться Дедом Морозом, показать доверчивому Алёше пару фокусов, подружиться с богатырями и оказаться в Египте - стране фараонов и древних пирамид. А дальше - пирамиды, заклинание, Древний огонь - и дело в шляпе! Но не так-то просто осуществить своё коварное желание, когда на пути у тебя встают не только три богатыря, но и их жёны, Князь и Юлий, Змей Горыныч и Дед Мороз и даже - сама принцесса Нефертити!
AppleStoreCatalogID : 1329492007
Vendor : Apple:vendor_id:2017-1038154
ContentRating : ru-movie|6+|150|

Video #1
ID : 1
Format : AVC
Format/Info : Advanced Video Codec
Format profile : [email protected]
Format settings, CABAC : Yes
Format settings, ReFrames : 4 frames
Codec ID : avc1
Codec ID/Info : Advanced Video Coding
Duration : 1h 8mn
Bit rate : 5 110 Kbps
Width : 1 920 pixels
Height : 1 080 pixels
Display aspect ratio : 16:9
Frame rate mode : Constant
Frame rate : 25.000 fps
Color space : YUV
Chroma subsampling : 4:2:0
Bit depth : 8 bits
Scan type : Progressive
Bits/(Pixel*Frame) : 0.099
Stream size : 2.45 GiB (90%)
Title : Main Program
Language : Russian
Encoded date : UTC 2018-02-08 09:42:51
Tagged date : UTC 2018-02-08 09:42:55
Color range : Limited
Color primaries : BT.709
Transfer characteristics : BT.709
Matrix coefficients : BT.709

Video #2
ID : 5
Format : JPEG
Codec ID : jpeg
Duration : 1h 8mn
Bit rate mode : Variable
Bit rate : 1 341 bps
Width : 640 pixels
Height : 360 pixels
Display aspect ratio : 16:9
Frame rate mode : Variable
Frame rate : 0.003 fps
Minimum frame rate : 0.002 fps
Maximum frame rate : 0.005 fps
Color space : YUV
Chroma subsampling : 4:2:0
Bit depth : 8 bits
Compression mode : Lossy
Bits/(Pixel*Frame) : 1.940
Stream size : 709 KiB (0%)
Title : Chapter Images
Language : Russian
Encoded date : UTC 2018-02-08 09:43:00
Tagged date : UTC 2018-02-08 09:43:00

Audio #1
ID : 2
Format : AAC
Format/Info : Advanced Audio Codec
Format profile : LC
Codec ID : 40
Duration : 1h 8mn
Source duration : 1h 8mn
Bit rate mode : Variable
Bit rate : 157 Kbps
Maximum bit rate : 237 Kbps
Channel(s) : 2 channels
Channel positions : Front: L R
Sampling rate : 48.0 KHz
Compression mode : Lossy
Stream size : 77.3 MiB (3%)
Source stream size : 77.3 MiB (3%)
Title : Russian Stereo
Language : Russian
Encoded date : UTC 2018-02-08 09:42:51
Tagged date : UTC 2018-02-08 09:42:55

Audio #2
ID : 3
Format : AC-3
Format/Info : Audio Coding 3
Mode extension : CM (complete main)
Format settings, Endianness : Big
Codec ID : ac-3
Duration : 1h 8mn
Bit rate mode : Constant
Bit rate : 384 Kbps
Channel(s) : 6 channels
Channel positions : Front: L C R, Side: L R, LFE
Sampling rate : 48.0 KHz
Bit depth : 16 bits
Compression mode : Lossy
Stream size : 189 MiB (7%)
Title : Russian DD 5.1
Language : Russian
Encoded date : UTC 2018-02-08 09:42:51
Tagged date : UTC 2018-02-08 09:42:55

Menu #1
00:00:00.000 : 1
00:07:28.280 : 2
00:12:39.720 : 3
00:17:31.400 : 4
00:23:15.800 : 5
00:28:30.840 : 6
00:32:41.920 : 7
00:37:37.520 : 8
00:42:24.320 : 9
00:46:54.720 : 10
00:51:00.120 : 11
00:55:35.760 : 12
00:59:06.800 : 13

Menu #2
ID : 4
Codec ID : text
Duration : 1h 8mn
Language : Russian
Encoded date : UTC 2018-02-08 09:42:56
Tagged date : UTC 2018-02-08 09:42:56
00:00:00.000 : 1
00:07:28.280 : 2
00:12:39.720 : 3
00:17:31.400 : 4
00:23:15.800 : 5
00:28:30.840 : 6
00:32:41.920 : 7
00:37:37.520 : 8
00:42:24.320 : 9
00:46:54.720 : 10
00:51:00.120 : 11
00:55:35.760 : 12
00:59:06.800 : 13
Bit rate mode : VBR

Релиз подготовлен для просмотра на Apple TV, iPad, iPhone, iPod Touch.
Для просмотра данного релиза на компьютере с ОС Windows рекомендуется использовать VLC media player

Трекер:  [ 08-Фев-2018 13:12 ]

  

Скачать .torrent

Размер .torrent файла 27 KB


Размер: 2.72 GB
Хэш (hash) релиза: 2824259927e3159c65556c00f7a0a1ede8a4de73

Еще никто не оставлял запись к записи скачать торрент [ATV3] Три богатыря и принцесса Египта . Будь первым!

!Обратная связь