Ccleaner 5.35 | Chasm of Memories | Turn-Based RPG

Скачать через торрент Невеста чародея Mahou Tsukai no Yome бесплатно Аниме Все серии на русском torrent

Статистика раздачи
Размер:  2.8 GB   |    Зарегистрирован:  4 месяца 14 дней   |    .torrent скачан:  51 раз   |   
Раздают:  1  
   
загрузка...
 
Автор Сообщение

Galfimbul

avatar Galfimbul


Невеста чародея / Mahoutsukai no Yome / Mahou Tsukai no Yome / The Ancient Magus' Bride

Страна: Япония
Год выпуска: 2017
Жанр: мистика, приключения, фэнтези, повседневность
Тип: TV
Продолжительность: 24 серии по ~24 минуты
Режиссер: Наганума Норихиро
Студия: Wit Studio



Описание: Сколько стоит жизнь человека? Имеет ли она вообще цену? А если имеет, то какую цену можно считать приемлемой? Но, даже получив ответы на эти вопросы, вряд ли кому-то захочется, чтобы его продали. Но если твоя жизнь тебе не принадлежит, то и спрашивать никто не станет. Так случилось и с пятнадцатилетней девочкой Чисэ Хатори. У неё не было ничего своего, лишь только особая сила, данная ей при рождении. За её необыкновенные способности и была назначена цена - 5 миллионов фунтов стерлингов. Вскоре нашёлся богатый покупатель, желающий приобрести Чисэ для себя.

Но этим покупателем оказался не человек, а странное существо с черепом вместо головы. Тем не менее, крупная сумма денег у него была в наличии, как и хорошие английские манеры примерного джентльмена. Элиас Айнсворт, так его звали, решил взять Чисэ к себе в ученицы, чтобы развивать её уникальные способности, а позже - и жениться на ней. Живя в единении с природой, Чисэ наконец начала обретать себя и понимать, что на свете существует множество радостей.
Русские субтитры

1. YakuSub Studio [Серии 01-06]
Перевод: Nika_Elrik, Редактура: Aero, Оформление: Helge

2. Перевод: Zottig, Редактура: AleX_MytH [Серии 01-06]



Русская озвучка

1. AniDub
JAM, Trina_D

2. Onibaku Group
Eladiel, Zendos

3. StudioBand
Татьяна Борзова, Ирина Зиновкина, Сергей Кубасян, Анна Мосолова, Полина Ртищева, Александр Русаков, Влад Токарев
Качество: BDRip
Тип релиза: Без хардсаба
Формат видео: MKV
Наличие линковки: Нет
Релиз/Автор рипа: Neko-Raws
Видео: 1280x720, x264, AAC 4:4:4, 10 bits, ~2000 kbit/s, 23.976 fps

Аудио 1: RUS (внешним файлом), AAC, ~192 kbit/s, 48 kHz, 2 channels; Озвучка 1: двухголосая (муж./жен.) от JAM & Trina_D (AniDUB)
Аудио 2: RUS (внешним файлом), AAC, ~192 kbit/s, 48 kHz, 2 channels; Озвучка 2: двухголосая (муж./жен.) от Eladiel & Zendos (Onibaku)
Аудио 3: RUS (внешним файлом), AAC, ~230 kbit/s, 48 kHz, 2 channels; Озвучка 3: многоголосая: Татьяна Борзова, Ирина Зиновкина, Сергей Кубасян, Анна Мосолова, Полина Ртищева, Александр Русаков, Влад Токарев (StudioBand)
Аудио 4: JAP, AAC, 128 kbit/s, 48 kHz, 2 channels
Субтитры: ENG (встроенные), ASS; Перевод: Commie
Субтитры 2: RUS (внешние), ASS; Перевод 2: Alex_Myth & Zottig
Субтитры 3: RUS (внешние), ASS; Перевод 3: YakuSub Studio (Nika_Elrik & Aero & Helge)
<div class="sp-wrap">
<div class="sp-head folded">Серия 01</div>
<div class="sp-body">

GeneralUnique ID : 79429410531435167195345836560470064760 (0x3BC18C4B168672F5B309146BFFB53E78)Complete name : D:\Anime\Mahoutsukai no Yome [BDRip 720p]\[neko-raws] Mahoutsukai no Yome 01 [F8E4A4B3].mkvFormat : MatroskaFormat version : Version 4 / Version 2File size : 349 MiBDuration : 24 min 9 sOverall bit rate : 2 022 kb/sEncoded date : UTC 2018-01-18 19:07:01Writing application : mkvmerge v19.0.0 ('Brave Captain') 64-bitWriting library : libebml v1.3.5 + libmatroska v1.4.8Attachments : GANDHISANS-BOLD.OTF / GANDHISANS-BOLDITALIC.OTF / JENNBEE.TTF / KOZUKAMINCHOPROSTRP-B.OTF / MODERNANTIQUA-REGULAR.TTF

VideoID : 1Format : AVCFormat/Info : Advanced Video CodecFormat profile : High 4:4:4 [email protected] settings : CABAC / 16 Ref FramesFormat settings, CABAC : YesFormat settings, RefFrames : 16 framesCodec ID : V_MPEG4/ISO/AVCDuration : 24 min 9 sBit rate : 1 891 kb/sWidth : 1 280 pixelsHeight : 720 pixelsDisplay aspect ratio : 16:9Frame rate mode : ConstantFrame rate : 23.976 (24000/1001) FPSColor space : YUVChroma subsampling : 4:4:4Bit depth : 10 bitsScan type : ProgressiveBits/(Pixel*Frame) : 0.086Stream size : 327 MiB (94%)Title : encode by neko-shiWriting library : x264 core 152 r2851 ba24899 (DJATOM's build)Encoding settings : cabac=1 / ref=16 / deblock=1:-1:-2 / analyse=0x1:0x111 / me=umh / subme=10 / psy=1 / psy_rd=0.75:0.00 / mixed_ref=1 / me_range=32 / chroma_me=1 / trellis=2 / 8x8dct=0 / cqm=0 / deadzone=21,11 / fast_pskip=1 / chroma_qp_offset=4 / threads=12 / lookahead_threads=3 / sliced_threads=0 / nr=0 / decimate=1 / interlaced=0 / bluray_compat=0 / constrained_intra=0 / bframes=16 / b_pyramid=2 / b_adapt=2 / b_bias=0 / direct=1 / weightb=1 / open_gop=0 / weightp=2 / keyint=240 / keyint_min=23 / scenecut=40 / intra_refresh=0 / rc=crf / mbtree=0 / crf=14.0000 / qcomp=0.70 / qpmin=0 / qpmax=81 / qpstep=4 / ip_ratio=1.40 / pb_ratio=1.30 / aq=3:0.75Default : YesForced : NoColor range : LimitedColor primaries : BT.709Transfer characteristics : BT.709Matrix coefficients : BT.709

AudioID : 2Format : AACFormat/Info : Advanced Audio CodecFormat profile : LCCodec ID : A_AAC-2Duration : 24 min 9 sBit rate : 125 kb/sChannel(s) : 2 channelsChannel positions : Front: L RSampling rate : 48.0 kHzFrame rate : 46.875 FPS (1024 SPF)Compression mode : LossyStream size : 21.7 MiB (6%)Title : AAC 2.0Language : JapaneseDefault : YesForced : No

TextID : 3Format : ASSCodec ID : S_TEXT/ASSCodec ID/Info : Advanced Sub Station AlphaDuration : 24 min 8 sBit rate : 121 b/sCount of elements : 323Compression mode : LosslessStream size : 21.5 KiB (0%)Title : English [Commie]Language : EnglishDefault : YesForced : No

Menu00:00:00.000 : en:OP00:01:30.007 : en:Main Episode00:22:24.843 : en:ED00:23:54.933 : en:Preview
GeneralUnique ID : 62801125888853289611765584221950667818 (0x2F3F0E90480177FD4E55548D764F6C2A)Complete name : D:\Anime\Mahoutsukai no Yome [BDRip 720p]\[neko-raws] Mahoutsukai no Yome 05 [CE26D550].mkvFormat : MatroskaFormat version : Version 4 / Version 2File size : 404 MiBDuration : 24 min 10 sOverall bit rate : 2 335 kb/sEncoded date : UTC 2018-01-18 06:19:12Writing application : mkvmerge v19.0.0 ('Brave Captain') 64-bitWriting library : libebml v1.3.5 + libmatroska v1.4.8Attachments : GANDHISANS-BOLD_0.OTF / GANDHISANS-BOLDITALIC_0.OTF / KOZUKAMINCHOPROSTRP-B_0.OTF / MODERNANTIQUA-REGULAR.TTF / Chuu2-next.ttf

VideoID : 1Format : AVCFormat/Info : Advanced Video CodecFormat profile : High 4:4:4 [email protected] settings : CABAC / 16 Ref FramesFormat settings, CABAC : YesFormat settings, RefFrames : 16 framesCodec ID : V_MPEG4/ISO/AVCDuration : 24 min 10 sBit rate : 2 203 kb/sWidth : 1 280 pixelsHeight : 720 pixelsDisplay aspect ratio : 16:9Frame rate mode : ConstantFrame rate : 23.976 (24000/1001) FPSColor space : YUVChroma subsampling : 4:4:4Bit depth : 10 bitsScan type : ProgressiveBits/(Pixel*Frame) : 0.100Stream size : 381 MiB (94%)Title : encode by neko-shiWriting library : x264 core 152 r2851 ba24899 (DJATOM's build)Encoding settings : cabac=1 / ref=16 / deblock=1:-1:-2 / analyse=0x1:0x111 / me=umh / subme=10 / psy=1 / psy_rd=0.75:0.00 / mixed_ref=1 / me_range=32 / chroma_me=1 / trellis=2 / 8x8dct=0 / cqm=0 / deadzone=21,11 / fast_pskip=1 / chroma_qp_offset=4 / threads=12 / lookahead_threads=3 / sliced_threads=0 / nr=0 / decimate=1 / interlaced=0 / bluray_compat=0 / constrained_intra=0 / bframes=16 / b_pyramid=2 / b_adapt=2 / b_bias=0 / direct=1 / weightb=1 / open_gop=0 / weightp=2 / keyint=240 / keyint_min=23 / scenecut=40 / intra_refresh=0 / rc=crf / mbtree=0 / crf=14.0000 / qcomp=0.70 / qpmin=0 / qpmax=81 / qpstep=4 / ip_ratio=1.40 / pb_ratio=1.30 / aq=3:0.75Default : YesForced : NoColor range : LimitedColor primaries : BT.709Transfer characteristics : BT.709Matrix coefficients : BT.709

AudioID : 2Format : AACFormat/Info : Advanced Audio CodecFormat profile : LCCodec ID : A_AAC-2Duration : 24 min 9 sBit rate : 125 kb/sChannel(s) : 2 channelsChannel positions : Front: L RSampling rate : 48.0 kHzFrame rate : 46.875 FPS (1024 SPF)Compression mode : LossyStream size : 21.7 MiB (5%)Title : AAC 2.0Language : JapaneseDefault : YesForced : No

TextID : 3Format : ASSCodec ID : S_TEXT/ASSCodec ID/Info : Advanced Sub Station AlphaDuration : 24 min 8 sBit rate : 139 b/sCount of elements : 367Compression mode : LosslessStream size : 24.8 KiB (0%)Title : English [Commie]Language : EnglishDefault : YesForced : No

Menu00:00:00.000 : en:OP00:01:30.007 : en:Main Episode00:22:24.969 : en:ED00:23:55.017 : en:Preview
[/pre]</div>
</div>
1 April Showers Bring May Flowers.
2 One Today Is Worth Two Tomorrows.
3 The Balance Distinguishes Not Between Gold and Lead.
4 Everything Must Have a Beginning.
5 Love Conquers All.
6 The Faerie Queene.

7 Talk of the Devil, and He Is Sure to Appear.
8 Let Sleeping Dogs Lie.
9 None So Deaf as Those Who Will Not Hear.
10 We Live and Learn.
11 Lovers Ever Run Before the Clock.
12 Better to Ask the Way Than Go Astray.
13 East, West, Home`s Best.
14 Looks Breed Love.
15 There Is No Place Like Home.
16 God`s Mill Grinds Slow but Sure.
17 Look Before You Leap.
...5491805 - 720p, BDRip
...5463312 - BDRip


Трекер:  [ 07-Фев-2018 23:01 ]

  

Скачать .torrent

Размер .torrent файла 18 KB


Размер: 2.8 GB
Хэш (hash) релиза: af779668a4056b1ff79cde055c63fe3b0775c9c9
Подписка на обновления:

Торренты, похожие на Невеста чародея Mahou Tsukai no Yome скачать торрент

Форум Название Автор Размер S L Добавлен
Аниме | HD Rips ·· Невеста чародея / Mahoutsukai no Yome / Mahou Tsukai no Yome / The Ancient Magus' Bride [TV] [Без хардсаба] [01-10 из 24] [RUS(ext), JAP+SUB] [2017, Магия, мистика, приключения, фантастика, HDTVRip] [1080p] Galfimbul 63616064575.92 GB 0 0 1512923490

19:31

10-Дек-17

Еще никто не оставлял запись к записи скачать торрент Невеста чародея Mahou Tsukai no Yome . Будь первым!

!Обратная связь