Best Christian Gospel Songs 2018 | مشاهدة المزيد من المواضيع المختارة | Marvel's Inhumans saison 1 épisode 6

Скачать через торрент Ветер в лицо Сезон: 1 Фильм бесплатно в хорошем качестве torrent

Скачивайте на UnionPeer.org фильмы через торрент без регистрации. Новинки кино в хорошем качестве через торрент. На UnionPeer.org можно скачать через торрент фильмы 2014 и 2015 годов. Самые новые фильмы.

Скачать торрент Ветер в лицо Сезон: 1 бесплатно через .torrent фильм мультфильм сериал

Статистика раздачи
Размер:  2.64 GB   |    Зарегистрирован:  6 месяцев   |    .torrent скачан:  89 раз   |   
Раздают:  1  
   
загрузка...
 
Автор Сообщение

Galfimbul

avatar Galfimbul


Ветер в лицо
Год выпуска: 2014
Производство: «Star Media»
Жанр: Мелодрама
Продолжительность: ~ 46 мин.
Субтитры: Отсутствуют
Режиссер: Николай Михайлов (III)
В ролях: Алина Ланина, Евгений Пронин, Екатерина Волкова, Константин Стрельников, Илья Соколовский, Нина Антонова, Дмитрий Смирнов (IV), Екатерина Кабак, Михаил Пшеничный, Наталия Васько, Марк Бояров, Андрей Исаенко, Владимир Кузнецов (IV), Борис Георгиевский, Ксения Николаева, Людмила Ардельян, Людмила Смородина, Михаил Жонин, Нина Лич, Саак Дурян и др.
Описание: Должны ли дети отвечать за грехи своих родителей? И можно ли изменить свою карму?

Безоблачная жизнь 20-летней Дины рушится в одночасье: умирает ее дедушка, она становится жертвой квартирных аферистов, ее предает любимый человек, и, вдобавок, она узнает, что беременна. Ситуация осложняется еще и тем, что пообещав родить ребенка для другой женщины, Дина вдруг меняет решение: малыш, зашевелившийся под сердцем, становится ей невозможно дорог! Пытаясь сбежать от той, которой теперь ни за что не отдаст своего малыша, Дина случайно стреляет в нее. И теперь она вынуждена скрываться! Казалось бы, противостоять такому ураганному «ветру в лицо» - невозможно! Многим, но не Дине!

Она пройдет через множество испытаний, узнает тайну своего рождения, научится понимать и прощать, прежде чем жизнь её наладится, и в ней появится любовь.



Релиз группы
Источник рипа - MediaClub
Семпл
Кино-Театр
Качество: WEBRip
Формат: AVI
Видео кодек: XviD
Аудио кодек: AC3
Видео: 720x400 (1.80:1), 25 fps, XviD build 73 ~1899 kbps avg, 0.26 bit/pixel
Аудио: 48 kHz, AC3 Dolby Digital, 2/0 (L,R) ch, ~192.00 kbps avg
Общее
Уникальный идентификатор                 : 197094923897646232106901495893783357340 (0x94471A01492B62148784F91031D6279C)
Полное имя                               : D:\Торрент\После\Veter.v.litso.2014.WEB-DL.(1080p).MediaClub\Veter.v.litso.(01.seriya.iz.04).2014.WEB-DL.(1080p).MediaClub.mkv
Формат                                   : Matroska
Версия формата                           : Version 4 / Version 2
Размер файла                             : 1,00 Гбайт
Продолжительность                        : 47 м. 11 с.
Общий поток                              : 3046 Кбит/сек
Название фильма                          : Veter.v.litso.(01.seriya.iz.04).2014.WEB-DL.(1080p).MediaClub
Дата кодирования                         : UTC 2014-05-05 14:09:02
Программа кодирования                    : mkvmerge v6.3.0 ('You can't stop me!') built on Jun 28 2013 20:09:41
Библиотека кодирования                   : libebml v1.3.0 + libmatroska v1.4.0

Видео
Идентификатор                            : 1
Формат                                   : AVC
Формат/Информация                        : Advanced Video Codec
Профиль формата                          : [email protected]
Настройки формата                        : CABAC / 2 Ref Frames
Параметр CABAC формата                   : Да
Параметр RefFrames формата               : 2 кадра
Идентификатор кодека                     : V_MPEG4/ISO/AVC
Продолжительность                        : 47 м. 11 с.
Битрейт                                  : 2794 Кбит/сек
Ширина                                   : 1920 пикселей
Высота                                   : 1080 пикселей
Соотношение сторон                       : 16:9
Режим частоты кадров                     : Постоянный
Частота кадров                           : 25,000 кадров/сек
Цветовое пространство                    : YUV
Субдискретизация насыщенности            : 4:2:0
Битовая глубина                          : 8 бит
Тип развёртки                            : Прогрессивная
Бит/(Пиксели*Кадры)                      : 0.054
Размер потока                            : 943 Мбайт (92%)
Default                                  : Да
Forced                                   : Да

Аудио
Идентификатор                            : 2
Формат                                   : AC-3
Формат/Информация                        : Audio Coding 3
Идентификатор кодека                     : A_AC3
Продолжительность                        : 47 м. 11 с.
Вид битрейта                             : Постоянный
Битрейт                                  : 192 Кбит/сек
Каналы                                   : 2 канала
Расположение каналов                     : Front: L R
Частота                                  : 48,0 КГц
Частота кадров                           : 31,250 кадров/сек (1536 SPF)
Битовая глубина                          : 16 бит
Метод сжатия                             : С потерями
Размер потока                            : 64,8 Мбайт (6%)
Язык                                     : Russian
ServiceKind/String                       : Complete Main
Default                                  : Да
Forced                                   : Да
Общее
Полное имя                               : D:\Ветер в лицо\Veter.v.litso.S01E01.2014.WEBRip.RG.Russkie.serialy.avi
Формат                                   : AVI
Формат/Информация                        : Audio Video Interleave
Размер файла                             : 709 Мбайт
Продолжительность                        : 47 м. 11 с.
Общий поток                              : 2101 Кбит/сек
Программа кодирования                    : VirtualDubMod 1.5.10.3 | www.virtualdub-fr.org || (build 2550/release)
Библиотека кодирования                   : VirtualDubMod build 2550/release

Видео
Идентификатор                            : 0
Формат                                   : MPEG-4 Visual
Профиль формата                          : Advanced [email protected]
Настройки формата                        : BVOP2 / Custom Matrix
Параметр BVOP формата                    : 2
Параметр QPel формата                    : Нет
Параметр GMC формата                     : Без точки перехода
Параметр матрицы формата                 : Выборочная
Идентификатор кодека                     : XVID
Идентификатор кодека/Подсказка           : XviD
Продолжительность                        : 47 м. 11 с.
Битрейт                                  : 1899 Кбит/сек
Ширина                                   : 720 пикселей
Высота                                   : 400 пикселей
Соотношение сторон                       : 16:9
Частота кадров                           : 25,000 кадров/сек
Цветовое пространство                    : YUV
Субдискретизация насыщенности            : 4:2:0
Битовая глубина                          : 8 бит
Тип развёртки                            : Прогрессивная
Метод сжатия                             : С потерями
Бит/(Пиксели*Кадры)                      : 0.264
Размер потока                            : 641 Мбайт (90%)
Библиотека кодирования                   : XviD 73

Аудио
Идентификатор                            : 1
Формат                                   : AC-3
Формат/Информация                        : Audio Coding 3
Идентификатор кодека                     : 2000
Продолжительность                        : 47 м. 11 с.
Вид битрейта                             : Постоянный
Битрейт                                  : 192 Кбит/сек
Каналы                                   : 2 канала
Расположение каналов                     : Front: L R
Частота                                  : 48,0 КГц
Частота кадров                           : 31,250 кадров/сек (1536 SPF)
Битовая глубина                          : 16 бит
Метод сжатия                             : С потерями
Размер потока                            : 64,8 Мбайт (9%)
Выравнивание                             : Разделение по промежуткам
Продолжительность промежутка             : 40  мс. (1,00 видеокадр)
Время предзагрузки промежутка            : 500  мс.
ServiceKind/String                       : Complete Main


Трекер:  [ 07-Фев-2018 19:48 ]

  

Скачать .torrent

Размер .torrent файла 14 KB


Размер: 2.64 GB
Хэш (hash) релиза: 2a31e2044be351a05ac1d6ed90b61ee1017ef087
Подписка на обновления:

Еще никто не оставлял запись к записи скачать торрент Ветер в лицо Сезон: 1 . Будь первым!

!Обратная связь