Hyperbox.org | General Discussions | Galaxy Mini (S5570)

Скачать через торрент [ATV3] Легенда о Коловрате бесплатно русская версия torrent активатор

Если у вас наблюдаются проблемы со скриншотами, переходом по ссылками, скачиванием торрентов - проблемы в блокировщике рекламы AdBlock. #хорошегоДня!


Статистика раздачи
Размер:  4.15 GB   |    Зарегистрирован:  10 дней   |    .torrent скачан:  29 раз   |   
Раздают:  1  
   
Загрузка...
 
Автор Сообщение

Galfimbul

avatar Galfimbul


Легенда о Коловрате
«Героем может стать каждый»

6.462 / 10 6.50 / 10
Год выпуска: 2017
Страна: Россия
Жанр: История, боевик, фэнтези
Продолжительность: 01:53:03

Перевод: (Не требуется)
Оригинальная аудиодорожка: Есть
Cубтитры: Нет
Режиссёр: Иван Шурховецкий
Сценарий: Сергей Юдаков, Евгений Раевский, Дмитрий Раевский
Продюсер: Джаник Файзиев, Рафаел Минасбекян, Павел Степанов
Оператор: Максим Осадчий
Композитор: Серж Танкян
Художник: Вилюс Ванагас, Наталья Дзюбенко, Екатерина Дыминская
Монтаж: Род Николайчук
В ролях: Илья Малаков, Александр Цой, Александр Ильин мл., Юлия Хлынина, Тимофей Трибунцев, Алексей Серебряков, Игорь Савочкин, Полина Чернышова, Илья Антоненко, Георгий Пицхелаури

Бюджет: 360 000 000 руб.
Сборы в России: $10 755 879

Мировая премьера: 1 декабря 2017
Премьера (РФ): 30 ноября 2017, «Централ Партнершип»

Цифровой релиз: 06 февраля 2018, «Централ Партнершип»

Описание: XIII век. Русь раздроблена и вот-вот падет на колени перед ханом Золотой Орды Батыем. Испепеляя города и заливая русские земли кровью, захватчики не встречают серьезного сопротивления, и лишь один воин бросает им вызов. Молодой рязанский витязь Евпатий Коловрат возглавляет отряд смельчаков, чтобы отомстить за свою любовь и за свою родину. Его отвага поразит даже Батыя, а его имя навсегда останется в памяти народа. Воин, ставший легендой. Подвиг, сохранившийся в веках.
Качество исходника: WEB-DL 1080p (NNMClub)
Качество: WEB-DL
Тип: HD (1080p)
Контейнер: M4V
Видео: H.264, 1920x806, 2.40:1, 4 712 Kbps, 25.000 fps

Аудио 1: Русский/Оригинальная дорожка , AAC / 2.0 / 160 Kbps / 48.0 KHz
Аудио 2: Русский/Оригинальная дорожка , AC-3 / 5.1 / 384 Kbps / 48.0 KHz
Sort Name: Легенда о Коловрате
XID: Apple:vendor_id:2017-844118
contentID: 1338926219
Copyright: © 2017 Central Partnership
Screenwriters: Сергей Юдаков, Евгений Раевский, Дмитрий Раевский
Producers: Джаник Файзиев, Рафаел Минасбекян, Павел Степанов
Director: Джаник Файзиев & Иван Шурховецкий
Cast: Илья Малаков, Полина Чернышова, Алексей Серебряков, Александр Ильин мл., Игорь Савочкин, Тимофей Трибунцев, Александр Цой, Юлия Хлынина, Андрей Бурковский, Виктор Проскурин
Studio: Централ Партнершип, Киностудия КИТ, Продюсерский центр ИВАН
Rating: 134
Long Description: XIII век. Русь раздроблена и вот-вот падет на колени перед ханом Золотой Орды Батыем. Испепеляя города и заливая русские земли кровью, захватчики не встречают серьезного сопротивления, и лишь один воин бросает им вызов. Молодой рязанский витязь Евпатий Коловрат возглавляет отряд смельчаков, чтобы отомстить за свою любовь и за свою родину. Его отвага поразит даже Батыя, а его имя навсегда останется в памяти народа. Воин, ставший легендой. Подвиг, сохранившийся в веках.
Description: XIII век. Русь раздроблена и вот-вот падет на колени перед ханом Золотой Орды Батыем. Испепеляя города и заливая русские земли кровью, захватчики не встречают серьезного сопротивления, и лишь один воин бросает им вызов.
Release Date: 2017-12-01T08:00:00Z
Genre: Боевики и приключения
Artist: Джаник Файзиев & Иван Шурховецкий
Name: Легенда о Коловрате
General
Complete name : /Users/imac/HandBrake/Kolovrat.WEB-DL.1080p.m4v
Format : MPEG-4
Codec ID : M4V
File size : 4.15 GiB
Duration : 1h 53mn
Overall bit rate mode : Variable
Overall bit rate : 5 262 Kbps
Movie name : Легенда о Коловрате
Performer : Джаник Файзиев & Иван Шурховецкий
Director : Джаник Файзиев & Иван Шурховецкий
Actor : Илья Малаков / Полина Чернышова / Алексей Серебряков / Александр Ильин мл. / Игорь Савочкин / Тимофей Трибунцев / Александр Цой / Юлия Хлынина / Андрей Бурковский / Виктор Проскурин
Screenplay by : Сергей Юдаков / Евгений Раевский / Дмитрий Раевский
Producer : Джаник Файзиев / Рафаел Минасбекян / Павел Степанов
Production studio : Централ Партнершип, Киностудия КИТ, Продюсерский центр ИВАН
Genre : Боевики и приключения
ContentType : Short Film
Description : XIII век. Русь раздроблена и вот-вот падет на колени перед ханом Золотой Орды Батыем. Испепеляя города и заливая русские земли кровью, захватчики не встречают серьезного сопротивления, и лишь один воин бросает им вызов.
Recorded date : UTC 2017-12-01 08:00:00
Encoded date : UTC 2018-02-07 09:33:28
Tagged date : UTC 2018-02-07 09:34:05
Copyright : © 2017 Central Partnership
Cover : Yes
Rating : None
Title/Sort : Легенда о Коловрате
LongDescription : XIII век. Русь раздроблена и вот-вот падет на колени перед ханом Золотой Орды Батыем. Испепеляя города и заливая русские земли кровью, захватчики не встречают серьезного сопротивления, и лишь один воин бросает им вызов. Молодой рязанский витязь Евпатий Коловрат возглавляет отряд смельчаков, чтобы отомстить за свою любовь и за свою родину. Его отвага поразит даже Батыя, а его имя навсегда останется в памяти народа. Воин, ставший легендой. Подвиг, сохранившийся в веках.
AppleStoreCatalogID : 1338926219
Vendor : Apple:vendor_id:2017-844118
ContentRating : ru-movie|12+|200|

Video #1
ID : 1
Format : AVC
Format/Info : Advanced Video Codec
Format profile : [email protected]
Format settings, CABAC : Yes
Format settings, ReFrames : 5 frames
Codec ID : avc1
Codec ID/Info : Advanced Video Coding
Duration : 1h 53mn
Bit rate : 4 712 Kbps
Width : 1 920 pixels
Height : 806 pixels
Display aspect ratio : 2.40:1
Frame rate mode : Constant
Frame rate : 25.000 fps
Color space : YUV
Chroma subsampling : 4:2:0
Bit depth : 8 bits
Scan type : Progressive
Bits/(Pixel*Frame) : 0.122
Stream size : 3.72 GiB (90%)
Title : Main Program
Language : Russian
Encoded date : UTC 2018-02-07 09:33:28
Tagged date : UTC 2018-02-07 09:33:35
Color range : Limited
Color primaries : BT.709
Transfer characteristics : BT.709
Matrix coefficients : BT.709

Video #2
ID : 5
Format : JPEG
Codec ID : jpeg
Duration : 1h 53mn
Bit rate mode : Variable
Bit rate : 816 bps
Width : 640 pixels
Height : 268 pixels
Display aspect ratio : 2.40:1
Frame rate mode : Variable
Frame rate : 0.002 fps
Minimum frame rate : 0.001 fps
Maximum frame rate : 0.004 fps
Color space : YUV
Chroma subsampling : 4:2:0
Bit depth : 8 bits
Compression mode : Lossy
Bits/(Pixel*Frame) : 2.379
Stream size : 796 KiB (0%)
Title : Chapter Images
Language : Russian
Encoded date : UTC 2018-02-07 09:33:42
Tagged date : UTC 2018-02-07 09:33:43

Audio #1
ID : 2
Format : AAC
Format/Info : Advanced Audio Codec
Format profile : LC
Codec ID : 40
Duration : 1h 53mn
Source duration : 1h 53mn
Bit rate mode : Variable
Bit rate : 159 Kbps
Maximum bit rate : 220 Kbps
Channel(s) : 2 channels
Channel positions : Front: L R
Sampling rate : 48.0 KHz
Compression mode : Lossy
Stream size : 129 MiB (3%)
Source stream size : 129 MiB (3%)
Title : Russian Stereo
Language : Russian
Encoded date : UTC 2018-02-07 09:33:28
Tagged date : UTC 2018-02-07 09:33:36

Audio #2
ID : 3
Format : AC-3
Format/Info : Audio Coding 3
Mode extension : CM (complete main)
Format settings, Endianness : Big
Codec ID : ac-3
Duration : 1h 53mn
Bit rate mode : Constant
Bit rate : 384 Kbps
Channel(s) : 6 channels
Channel positions : Front: L C R, Side: L R, LFE
Sampling rate : 48.0 KHz
Bit depth : 16 bits
Compression mode : Lossy
Stream size : 310 MiB (7%)
Title : Russian DD 5.1
Language : Russian
Encoded date : UTC 2018-02-07 09:33:28
Tagged date : UTC 2018-02-07 09:33:35

Menu #1
00:00:00.000 : 1
00:07:57.640 : 2
00:14:50.360 : 3
00:22:21.920 : 4
00:29:03.240 : 5
00:36:26.680 : 6
00:42:17.000 : 7
00:48:10.240 : 8
00:54:52.680 : 9
01:01:46.480 : 10
01:10:23.800 : 11
01:18:15.000 : 12
01:22:01.840 : 13
01:27:50.480 : 14
01:33:55.360 : 15
01:39:54.840 : 16

Menu #2
ID : 4
Codec ID : text
Duration : 1h 53mn
Language : Russian
Encoded date : UTC 2018-02-07 09:33:37
Tagged date : UTC 2018-02-07 09:33:37
00:00:00.000 : 1
00:07:57.640 : 2
00:14:50.360 : 3
00:22:21.920 : 4
00:29:03.240 : 5
00:36:26.680 : 6
00:42:17.000 : 7
00:48:10.240 : 8
00:54:52.680 : 9
01:01:46.480 : 10
01:10:23.800 : 11
01:18:15.000 : 12
01:22:01.840 : 13
01:27:50.480 : 14
01:33:55.360 : 15
01:39:54.840 : 16
Bit rate mode : VBR

Релиз подготовлен для просмотра на Apple TV, iPad, iPhone, iPod Touch.
Для просмотра данного релиза на компьютере с ОС Windows рекомендуется использовать VLC media player

Трекер:  [ 07-Фев-2018 13:12 ]

  

Скачать .torrent

Размер .torrent файла 42 KB


Размер: 4.15 GB
Хэш (hash) релиза: ef18bf83929cb9abc1b413055d5eab3cfa262a46

Еще никто не оставлял запись к записи скачать торрент [ATV3] Легенда о Коловрате . Будь первым!

!Обратная связь