11x04 Expediente X
1x34 Dragon Ball Super

Скачать через торрент Легенда о Коловрате Фильм бесплатно в хорошем качестве torrent

Скачивайте на UnionPeer.org фильмы через торрент без регистрации. Новинки кино в хорошем качестве через торрент. На UnionPeer.org можно скачать через торрент фильмы 2014 и 2015 годов. Самые новые фильмы.

Скачать торрент Легенда о Коловрате бесплатно через .torrent фильм мультфильм сериал

Если у вас наблюдаются проблемы со скриншотами, переходом по ссылками, скачиванием торрентов - проблемы в блокировщике рекламы AdBlock. #хорошегоДня!


Статистика раздачи
Размер:  2.18 GB   |    Зарегистрирован:  17 дней   |    .torrent скачан:  120 раз   |   
Раздают:  2  
   
Загрузка...
 
Автор Сообщение

Galfimbul

avatar Galfimbul


Легенда о Коловрате

Страна: Россия
Жанр: история, боевик, фэнтези
Год выпуска: 2017
Продолжительность: 01:52:02
Субтитры: нет
Режиссер:
Джаник Файзиев, Иван Шурховецкий
В ролях:
Илья Малаков (Евпатий Коловрат), Полина Чернышова (Настя), Алексей Серебряков (Князь Юрий), Александр Ильин мл. (Каркуш), Игорь Савочкин (Ратмир), Тимофей Трибунцев , Александр Цой (Хан Батый), Юлия Хлынина (Лада)
Описание:
XIII век. Русь раздроблена и вот-вот падет на колени перед ханом Золотой Орды Батыем. Испепеляя города и заливая русские земли кровью, захватчики не встречают серьезного сопротивления, и лишь один воин бросает им вызов. Молодой рязанский витязь Евпатий Коловрат возглавляет отряд смельчаков, чтобы отомстить за свою любовь и за свою родину. Его отвага поразит даже Батыя, а его имя навсегда останется в памяти народа. Воин, ставший легендой. Подвиг, сохранившийся в веках.
Качество видео: WEB-DLRip | Legenda.o.Kovovrate.2017.O.WEB-DL.1O8Op
Формат видео: AVI

Видео: 720x304 (2.37:1), 25 fps, XviD build 73 ~2371 kbps avg, 0.43 bit/pixel
Аудио: 48 kHz, AC3 Dolby Digital, 3/2 (L,C,R,l,r) + LFE ch, ~384 kbps
Сэмпл
Format                      : AVI
Format/Info                 : Audio Video Interleave
Format profile              : OpenDML
File size                   : 2.18 GiB
Duration                    : 1 h 53 min
Overall bit rate            : 2 762 kb/s
Writing application         : VirtualDubMod 1.5.10.3 | www.virtualdub-fr.org || (build 2550/release)
Writing library             : VirtualDubMod build 2550/release

Video
ID                          : 0
Format                      : MPEG-4 Visual
Format profile              : Advanced [email protected]
Format settings             : BVOP1 / Custom Matrix
Format settings, BVOP       : 1
Format settings, QPel       : No
Format settings, GMC        : No warppoints
Format settings, Matrix     : Custom
Codec ID                    : XVID
Codec ID/Hint               : XviD
Duration                    : 1 h 53 min
Bit rate                    : 2 366 kb/s
Width                       : 720 pixels
Height                      : 304 pixels
Display aspect ratio        : 2.35:1
Frame rate                  : 25.000 FPS
Color space                 : YUV
Chroma subsampling          : 4:2:0
Bit depth                   : 8 bits
Scan type                   : Progressive
Compression mode            : Lossy
Bits/(Pixel*Frame)          : 0.432
Stream size                 : 1.87 GiB (86%)
Writing library             : XviD 73

Audio
ID                          : 1
Format                      : AC-3
Format/Info                 : Audio Coding 3
Codec ID                    : 2000
Duration                    : 1 h 53 min
Bit rate mode               : Constant
Bit rate                    : 384 kb/s
Channel(s)                  : 6 channels
Channel positions           : Front: L C R, Side: L R, LFE
Sampling rate               : 48.0 kHz
Frame rate                  : 31.250 FPS (1536 SPF)
Bit depth                   : 16 bits
Compression mode            : Lossy
Stream size                 : 310 MiB (14%)
Alignment                   : Split accross interleaves
Interleave, duration        : 40  ms (1.00 video frame)
Interleave, preload duratio : 500  ms
Service kind                : Complete Main


Трекер:  [ 07-Фев-2018 00:54 ]

  

Скачать .torrent

Размер .torrent файла 11 KB


Размер: 2.18 GB
Хэш (hash) релиза: 60419fab5272fc5ce6aa6fed2a3f8c3d7192b7b2
Подписка на обновления:

Торренты, похожие на Легенда о Коловрате скачать торрент

Форум Название Автор Размер S L Добавлен
Российские фильмы до 2016 ·· Легенда о Коловрате (Джаник Файзиев, Иван Шурховецкий) [2017, история, боевик, фэнтези, WEB-DLRip] Galfimbul 783124480747 MB 0 0 1517979549

07:59

7-Фев-18

Российские фильмы 2016-2018 (Новинки русского кино) ·· Легенда о Коловрате (Джаник Файзиев, Иван Шурховецкий) [2017 г., история, боевик, фэнтези, WEB-DLRip] | iTunes Galfimbul 22052106242.05 GB 2 0 1517908503

12:15

6-Фев-18

Российские фильмы 2016-2018 (Новинки русского кино) ·· Легенда о Коловрате (Джаник Файзиев, Иван Шурховецкий) [2017, Россия, История, боевик, фэнтези, WEB-DL 1080p] iTunes Galfimbul 43224492274.03 GB 5 0 1517869835

01:30

6-Фев-18

Российские фильмы до 2016 ·· Легенда о Коловрате (Джаник Файзиев, Иван Шурховецкий) [2017, Россия, История, боевик, фэнтези, WEBRip 1080p] Galfimbul 46439557804.33 GB 4 0 1517472497

11:08

1-Фев-18

Российские фильмы 2016-2018 (Новинки русского кино) ·· Легенда о Коловрате (Джаник Файзиев, Иван Шурховецкий) [2017 г., история, боевик, фэнтези, WEB-DLRip] Galfimbul 774991872739 MB 2 0 1517397025

14:10

31-Янв-18

Российские фильмы 2016-2018 (Новинки русского кино) ·· Легенда о Коловрате (Джаник Файзиев, Иван Шурховецкий) [2017 г., история, боевик, фэнтези, WEB-DLRip] Galfimbul 15832883201.47 GB 6 0 1517346030

00:00

31-Янв-18

Российские фильмы до 2016 ·· Легенда о Коловрате (Джаник Файзиев, Иван Шурховецкий) [2017, Россия, история, боевик, фэнтези, WEB-DLRip] Galfimbul 15832883201.47 GB 0 0 1517329897

19:31

30-Янв-18

Российские фильмы 2016-2018 (Новинки русского кино) ·· Легенда о Коловрате (Джаник Файзиев, Иван Шурховецкий) [2017 г., история, боевик, фэнтези, WEB-DL 720p] Galfimbul 44083106654.11 GB 2 0 1517315737

15:35

30-Янв-18

Российские фильмы 2016-2018 (Новинки русского кино) ·· Легенда о Коловрате (Джаник Файзиев, Иван Шурховецкий) [2017 г., история, боевик, фэнтези, WEB-DL 1080p] Galfimbul 50269697894.68 GB 8 0 1512602368

02:19

7-Дек-17

Российские фильмы 2016-2018 (Новинки русского кино) ·· Легенда о Коловрате (Джаник Файзиев, Иван Шурховецкий) [2017 г., история, боевик, фэнтези, WEB-DLRip] Galfimbul 22052208642.05 GB 0 0 1512602366

02:19

7-Дек-17

Российские фильмы 2016-2018 (Новинки русского кино) ·· Легенда о Коловрате (Джаник Файзиев, Иван Шурховецкий) [2017 г., история, боевик, фэнтези, WEB-DLRip] Galfimbul 14682234881.37 GB 2 0 1512132391

15:46

1-Дек-17

Трейлеры и дополнительные материалы ·· Легенда о Коловрате (Иван Шурховецкий) [2017, история, боевик, фэнтези, WEBRip-720p] Трейлер Galfimbul 6557288863 MB 0 0 1499271133

19:12

5-Июл-17

Еще никто не оставлял запись к записи скачать торрент Легенда о Коловрате . Будь первым!

!Обратная связь