Скачать через торрент Ирония судьбы. Продолжение бесплатно русская версия torrent активатор

Если у вас наблюдаются проблемы со скриншотами, переходом по ссылками, скачиванием торрентов - проблемы в блокировщике рекламы AdBlock. #хорошегоДня!


Статистика раздачи
Размер:  6.02 GB   |    Зарегистрирован:  16 дней   |    .torrent скачан:  24 раза   |   
Раздают:  1  
   
Загрузка...
 
Автор Сообщение

Galfimbul

avatar Galfimbul


Ирония судьбы. Продолжение
"У любви нет прошедшего времени"

5.195 / 10
Год выпуска: 2007
Страна: Россия
Жанр: мелодрама, комедия
Продолжительность: 114 мин. (01:53:55)

Перевод: Не требуется
Оригинальная аудиодорожка: Есть
Cубтитры: Русские полные и английские полные

Режиссёр: Тимур Бекмамбетов
Сценарий: Алексей Слаповский, Тимур Бекмамбетов, Константин Эрнст
Продюсер: Константин Эрнст, Тимур Бекмамбетов, Анатолий Максимов
Оператор: Сергей Трофимов
Композитор: Микаэл Таривердиев, Юрий Потеенко
Художник: Мухтар Мирзакеев, Варя Авдюшко
Монтаж: Дмитрий Киселёв, Илья Лебедев
В ролях: Константин Хабенский, Сергей Безруков, Елизавета Боярская, Барбара Брыльска, Андрей Мягков, Юрий Яковлев, Валентина Талызина, Александр Ширвиндт, Александр Белявский, Вилле Хаапасало
Роли дублировали: Анна Каменкова

Бюджет: $5 000 000
Сборы в мире: $55 635 037
Сборы в России: $49 918 700

Мировая премьера: 21 декабря 2007
Премьера (РФ): 21 декабря 2007, Двадцатый Век Фокс СНГ
Релиз на Blu-Ray: 4 декабря 2008, Двадцатый Век Фокс СНГ
Релиз на DVD: 3 декабря 2009, Флагман-Трейд

Описание: С того Нового года, когда Женя Лукашин встретил свою Надю, прошло тридцать лет. Время не пощадило их отношений - они расстались, она вернулась в Ленинград. Старые друзья продолжают каждый год ходить в баню, но теперь к ним присоединился Костя - сын Жени Лукашина от нового брака, тоже, впрочем, неудачного. И вот Павел и Александр, ставшие уже дядей Пашей и дядей Сашей, подговаривают Костю совершить для отца новогоднее чудо и отправиться... в Петербург!
Но в их хитрый план вмешивается случайность: там, в типовой квартирке по знакомому адресу: 3-я улица Строителей, дом 25, квартира 12, проживает красавица Наденька, дочь той самой Надежды. И именно сегодня её жених Ираклий приезжает, чтобы сделать Наде предложение...
Качество исходника: Blu-Ray 1080p
Качество: BDRip
Тип: 480p 720p
Контейнер: m4v
Видео: 640x340 анаморф 852x340 at 23.976 fps, MPEG-4 AVC, ~1600 kbps avg
Видео: 1280x512 at 23.976 fps, MPEG-4 AVC, ~5000 kbps avg
Аудио#1: Russian: 48 kHz, ААС, 2/0 (L,R), ~128.00 / 192.00 kbps avg
Аудио#2: Russian: 48 kHz, AC3, 3/2 (L,C,R,l,r) + LFE ch, ~640.00 kbps avg
Субтитры №1: Russian: |Полные|
Субтитры №2: English: |Полные|
На стадии производства у фильма было 48 вариантов сценария.
После тест-просмотров было решено переснять часть сцен общей длительностью 15 минут.
Герой Александра Белявского (дядя Саша) появляется в двух сценах (в бане и аэропорту) и почти всегда молчит в отличие от героя Александра Ширвиндта. Это связано с тем, что Белявский не так давно перенес инсульт и речь до конца пока не восстановилась.
На самом деле Лиза Боярская отказалась от сцены поцелуя с Константином Хабенским. Операторы всего лишь ставили камеры так, чтобы этого не было заметно!
На роль Нади-младшей сценарист предлагал Милу Йовович. Ей отправили сценарий, но она отказалась.
Почти во всех кадрах фильма настойчиво используется сочетание красного и синего цветов (бокалы на столе, шарики на елке, в квартиру ведет красная дверь на синей стене и проч.). Точно такой же цвет имеют и воздушные шарики, на которых написаны имена главных героев.
Квартиру номер 13 сами авторы фильма называют «Сказкой» (см. доп. материалы к фильму). На стене в «сказке» висят «волшебные вещи».
Дата на хлопушке, фото которой помещено в дополнительных материалах к фильму, — 24.12.2006. Возможно, это является намеком на то, что действие фильма на самом деле происходит в Ночь перед Рождеством.

Name: Ирония судьбы: Продолжение
Artist: Тимур Бекмамбетов
Genre: Comedy
Release Date: 2007-12-21T08:00:00Z
Description: С того Нового года, когда Женя Лукашин встретил свою Надю, прошло тридцать лет. Время не пощадило их отношений - они расстались, она вернулась в Ленинград. Старые друзья продолжают каждый год ходить в баню, но теперь к ним присоединился Костя - сын Жени Лукашина от нового брака, тоже, впрочем, неудачного...
Long Description: С того Нового года, когда Женя Лукашин встретил свою Надю, прошло тридцать лет. Время не пощадило их отношений - они расстались, она вернулась в Ленинград. Старые друзья продолжают каждый год ходить в баню, но теперь к ним присоединился Костя - сын Жени Лукашина от нового брака, тоже, впрочем, неудачного. И вот Павел и Александр, ставшие уже дядей Пашей и дядей Сашей, подговаривают Костю совершить для отца новогоднее чудо и отправиться... в Петербург!
Но в их хитрый план вмешивается случайность: там, в типовой квартирке по знакомому адресу: 3-я улица Строителей, дом 25, квартира 12, проживает красавица Наденька, дочь той самой Надежды. И именно сегодня её жених Ираклий приезжает, чтобы сделать Наде предложение...
Rating: 12+
Studio: Базелевс Продакшн
Cast: Константин Хабенский, Сергей Безруков, Елизавета Боярская, Барбара Брыльска, Андрей Мягков, Юрий Яковлев, Валентина Талызина, Александр Ширвиндт, Александр Белявский, Вилле Хаапасало
Director: Тимур Бекмамбетов
Producers: Константин Эрнст, Тимур Бекмамбетов, Анатолий Максимов
Screenwriters: Алексей Слаповский, Тимур Бекмамбетов, Константин Эрнст
contentID: 740140973
XID: Apple:vendor_id:2007-276261
Sort Name: Ирония судьбы: Продолжение
General
Complete name : Ирония судьбы_ Продолжение.m4v
Format : MPEG-4
Codec ID : M4V  (M4V /M4A /mp42/isom)
File size : 1.38 GiB
Duration : 1h 53mn
Overall bit rate mode : Variable
Overall bit rate : 1 737 Kbps
Movie name : Ирония судьбы: Продолжение
Performer : Тимур Бекмамбетов
Director : Тимур Бекмамбетов
Actor : Константин Хабенский / Сергей Безруков / Елизавета Боярская / Барбара Брыльска / Андрей Мягков / Юрий Яковлев / Валентина Талызина / Александр Ширвиндт / Александр Белявский / Вилле Хаапасало
Screenplay by : Алексей Слаповский / Тимур Бекмамбетов / Константин Эрнст
Producer : Константин Эрнст / Тимур Бекмамбетов / Анатолий Максимов
Production studio : Базелевс Продакшн
Genre : Comedy
ContentType : Short Film
Description : С того Нового года, когда Женя Лукашин встретил свою Надю, прошло тридцать лет. Время не пощадило их отношений - они расстались, она вернулась в Ленинград. Старые друзья продолжают каждый год ходить в баню, но теперь к ним присоединился Костя - сын Жени Лукашина от нового брака, тоже, впрочем, неудачного...
Recorded date : UTC 2007-12-21 08:00:00
Encoded date : UTC 2016-01-19 11:44:19
Tagged date : UTC 2016-01-19 11:45:20
Cover : Yes
Rating : None
Title/Sort : Ирония судьбы: Продолжение
LongDescription : С того Нового года, когда Женя Лукашин встретил свою Надю, прошло тридцать лет. Время не пощадило их отношений - они расстались, она вернулась в Ленинград. Старые друзья продолжают каждый год ходить в баню, но теперь к ним присоединился Костя - сын Жени Лукашина от нового брака, тоже, впрочем, неудачного. И вот Павел и Александр, ставшие уже дядей Пашей и дядей Сашей, подговаривают Костю совершить для отца новогоднее чудо и отправиться... в Петербург!  / Но в их хитрый план вмешивается случайность: там, в типовой квартирке по знакомому адресу: 3-я улица Строителей, дом 25, квартира 12, проживает красавица Наденька, дочь той самой Надежды. И именно сегодня её жених Ираклий приезжает, чтобы сделать Наде предложение...
AppleStoreCatalogID : 740140973
Vendor : Apple:vendor_id:2007-276261
ContentRating : ru-movie|12+|200|

Video #1
ID : 1
Format : AVC
Format/Info : Advanced Video Codec
Format profile : [email protected]
Format settings, CABAC : No
Format settings, ReFrames : 2 frames
Codec ID : avc1
Codec ID/Info : Advanced Video Coding
Duration : 1h 53mn
Bit rate : 1 600 Kbps
Width : 640 pixels
Height : 340 pixels
Display aspect ratio : 2.505
Original display aspect ratio : 2.506
Frame rate mode : Variable
Frame rate : 23.976 (24000/1001) fps
Minimum frame rate : 23.974 fps
Maximum frame rate : 23.981 fps
Color space : YUV
Chroma subsampling : 4:2:0
Bit depth : 8 bits
Scan type : Progressive
Bits/(Pixel*Frame) : 0.307
Stream size : 1.27 GiB (92%)
Title : Main Program
Writing library : x264 core 130 r2273 b3065e6
Encoding settings : cabac=0 / ref=2 / deblock=1:0:0 / analyse=0x1:0x111 / me=umh / subme=6 / psy=1 / psy_rd=1.00:0.00 / mixed_ref=1 / me_range=16 / chroma_me=1 / trellis=0 / 8x8dct=0 / cqm=0 / deadzone=21,11 / fast_pskip=1 / chroma_qp_offset=-2 / threads=18 / lookahead_threads=2 / sliced_threads=0 / nr=0 / decimate=1 / interlaced=0 / bluray_compat=0 / constrained_intra=0 / bframes=0 / weightp=0 / keyint=240 / keyint_min=24 / scenecut=40 / intra_refresh=0 / rc_lookahead=40 / rc=2pass / mbtree=1 / bitrate=1600 / ratetol=1.0 / qcomp=0.60 / qpmin=0 / qpmax=69 / qpstep=4 / cplxblur=20.0 / qblur=0.5 / vbv_maxrate=5000 / vbv_bufsize=5000 / nal_hrd=none / ip_ratio=1.40 / aq=1:1.00
Language : Russian
Encoded date : UTC 2016-01-19 11:44:19
Tagged date : UTC 2016-01-19 11:44:23
Color range : Limited
Color primaries : BT.709
Transfer characteristics : BT.709
Matrix coefficients : BT.709
Menus : 5,6

Video #2
ID : 6
Format : JPEG
Codec ID : jpeg
Duration : 1h 53mn
Bit rate mode : Variable
Bit rate : 837 bps
Width : 640 pixels
Height : 255 pixels
Display aspect ratio : 2.510
Frame rate mode : Variable
Frame rate : 0.003 fps
Minimum frame rate : 0.002 fps
Maximum frame rate : 0.004 fps
Color space : YUV
Chroma subsampling : 4:2:0
Bit depth : 8 bits
Compression mode : Lossy
Bits/(Pixel*Frame) : 1.710
Stream size : 613 KiB (0%)
Title : Chapter Images
Language : Russian
Default : No
Encoded date : UTC 2016-01-19 11:44:29
Tagged date : UTC 2016-01-19 11:44:29
Menu For : 1

Audio
ID : 2
Format : AAC
Format/Info : Advanced Audio Codec
Format profile : LC
Codec ID : 40
Duration : 1h 53mn
Bit rate mode : Variable
Bit rate : 132 Kbps
Maximum bit rate : 225 Kbps
Channel(s) : 2 channels
Channel positions : Front: L R
Sampling rate : 48.0 KHz
Frame rate : 46.875 fps (1024 spf)
Compression mode : Lossy
Stream size : 107 MiB (8%)
Title : Russian Stereo
Language : Russian
Default : Yes
Alternate group : 1
Encoded date : UTC 2016-01-19 11:44:19
Tagged date : UTC 2016-01-19 11:44:26
Menus : 5

Text #1
ID : 3
Format : Timed Text
Muxing mode : sbtl
Codec ID : tx3g
Duration : 1h 50mn
Bit rate mode : Variable
Bit rate : 105 bps
Stream size : 85.0 KiB (0%)
Title : Russian Subtitle
Language : Russian
Default : Yes
Forced : No
Alternate group : 2
Encoded date : UTC 2016-01-19 11:44:19
Tagged date : UTC 2016-01-19 11:44:19

Text #2
ID : 4
Format : Timed Text
Muxing mode : sbtl
Codec ID : tx3g
Duration : 1h 50mn
Bit rate mode : Variable
Bit rate : 54 bps
Stream size : 44.0 KiB (0%)
Title : English Subtitle
Language : English
Default : No
Forced : No
Alternate group : 2
Encoded date : UTC 2016-01-19 11:44:19
Tagged date : UTC 2016-01-19 11:44:19

Menu #1
00:00:00.000 : 1
00:05:01.051 : 2
00:11:54.130 : 3
00:19:10.107 : 4
00:27:15.592 : 5
00:33:31.092 : 6
00:40:29.260 : 7
00:48:02.421 : 8
00:53:07.226 : 9
01:00:14.402 : 10
01:06:32.322 : 11
01:11:17.064 : 12
01:17:11.085 : 13
01:23:31.256 : 14
01:30:41.811 : 15
01:38:45.628 : 16
01:43:28.619 : 17
01:49:03.454 : 18

Menu #2
ID : 5
Codec ID : text
Duration : 1h 53mn
Title : Chapter Titles
Language : Russian
Encoded date : UTC 2016-01-19 11:44:26
Tagged date : UTC 2016-01-19 11:44:26
Menu For : 2,1
00:00:00.000 : 1
00:05:01.051 : 2
00:11:54.130 : 3
00:19:10.107 : 4
00:27:15.592 : 5
00:33:31.092 : 6
00:40:29.260 : 7
00:48:02.421 : 8
00:53:07.226 : 9
01:00:14.402 : 10
01:06:32.322 : 11
01:11:17.064 : 12
01:17:11.085 : 13
01:23:31.256 : 14
01:30:41.811 : 15
01:38:45.628 : 16
01:43:28.619 : 17
01:49:03.454 : 18
Bit rate mode : VBR
General
Complete name : Ирония судьбы_ Продолжение (HD).m4v
Format : MPEG-4
Codec ID : M4V  (M4V /M4A /mp42/isom)
File size : 4.64 GiB
Duration : 1h 53mn
Overall bit rate mode : Variable
Overall bit rate : 5 830 Kbps
Movie name : Ирония судьбы: Продолжение
Performer : Тимур Бекмамбетов
Director : Тимур Бекмамбетов
Actor : Константин Хабенский / Сергей Безруков / Елизавета Боярская / Барбара Брыльска / Андрей Мягков / Юрий Яковлев / Валентина Талызина / Александр Ширвиндт / Александр Белявский / Вилле Хаапасало
Screenplay by : Алексей Слаповский / Тимур Бекмамбетов / Константин Эрнст
Producer : Константин Эрнст / Тимур Бекмамбетов / Анатолий Максимов
Production studio : Базелевс Продакшн
Genre : Comedy
ContentType : Short Film
Description : С того Нового года, когда Женя Лукашин встретил свою Надю, прошло тридцать лет. Время не пощадило их отношений - они расстались, она вернулась в Ленинград. Старые друзья продолжают каждый год ходить в баню, но теперь к ним присоединился Костя - сын Жени Лукашина от нового брака, тоже, впрочем, неудачного...
Recorded date : UTC 2007-12-21 08:00:00
Encoded date : UTC 2016-01-19 09:50:18
Tagged date : UTC 2016-01-19 10:15:11
Cover : Yes
Rating : None
Title/Sort : Ирония судьбы: Продолжение
LongDescription : С того Нового года, когда Женя Лукашин встретил свою Надю, прошло тридцать лет. Время не пощадило их отношений - они расстались, она вернулась в Ленинград. Старые друзья продолжают каждый год ходить в баню, но теперь к ним присоединился Костя - сын Жени Лукашина от нового брака, тоже, впрочем, неудачного. И вот Павел и Александр, ставшие уже дядей Пашей и дядей Сашей, подговаривают Костю совершить для отца новогоднее чудо и отправиться... в Петербург!  / Но в их хитрый план вмешивается случайность: там, в типовой квартирке по знакомому адресу: 3-я улица Строителей, дом 25, квартира 12, проживает красавица Наденька, дочь той самой Надежды. И именно сегодня её жених Ираклий приезжает, чтобы сделать Наде предложение...
HDVideo : Yes
AppleStoreCatalogID : 740140973
Vendor : Apple:vendor_id:2007-276261
ContentRating : ru-movie|12+|200|

Video #1
ID : 1
Format : AVC
Format/Info : Advanced Video Codec
Format profile : [email protected]
Format settings, CABAC : No
Format settings, ReFrames : 3 frames
Codec ID : avc1
Codec ID/Info : Advanced Video Coding
Duration : 1h 53mn
Bit rate : 5 000 Kbps
Width : 1 280 pixels
Height : 512 pixels
Display aspect ratio : 2.500
Frame rate mode : Variable
Frame rate : 23.976 (24000/1001) fps
Minimum frame rate : 23.974 fps
Maximum frame rate : 23.981 fps
Color space : YUV
Chroma subsampling : 4:2:0
Bit depth : 8 bits
Scan type : Progressive
Bits/(Pixel*Frame) : 0.318
Stream size : 3.97 GiB (86%)
Title : Main Program
Writing library : x264 core 130 r2273 b3065e6
Encoding settings : cabac=0 / ref=3 / deblock=1:-3:-2 / analyse=0x3:0x113 / me=umh / subme=9 / psy=1 / psy_rd=1.00:0.25 / mixed_ref=1 / me_range=32 / chroma_me=1 / trellis=0 / 8x8dct=1 / cqm=0 / deadzone=21,11 / fast_pskip=0 / chroma_qp_offset=-2 / threads=18 / lookahead_threads=1 / sliced_threads=0 / nr=0 / decimate=0 / interlaced=0 / bluray_compat=0 / constrained_intra=0 / bframes=3 / b_pyramid=0 / b_adapt=2 / b_bias=0 / direct=1 / weightb=0 / open_gop=0 / weightp=0 / keyint=240 / keyint_min=24 / scenecut=40 / intra_refresh=0 / rc_lookahead=40 / rc=2pass / mbtree=1 / bitrate=5000 / ratetol=1.0 / qcomp=0.60 / qpmin=0 / qpmax=69 / qpstep=4 / cplxblur=20.0 / qblur=0.5 / vbv_maxrate=9500 / vbv_bufsize=9500 / nal_hrd=none / ip_ratio=1.40 / aq=1:0.80
Language : Russian
Encoded date : UTC 2016-01-19 09:50:18
Tagged date : UTC 2016-01-19 09:50:31
Color range : Limited
Color primaries : BT.709
Transfer characteristics : BT.709
Matrix coefficients : BT.709
Menus : 6,7

Video #2
ID : 7
Format : JPEG
Codec ID : jpeg
Duration : 1h 53mn
Bit rate mode : Variable
Bit rate : 895 bps
Width : 640 pixels
Height : 256 pixels
Display aspect ratio : 2.500
Frame rate mode : Variable
Frame rate : 0.003 fps
Minimum frame rate : 0.002 fps
Maximum frame rate : 0.004 fps
Color space : YUV
Chroma subsampling : 4:2:0
Bit depth : 8 bits
Compression mode : Lossy
Bits/(Pixel*Frame) : 1.821
Stream size : 655 KiB (0%)
Title : Chapter Images
Language : Russian
Default : No
Encoded date : UTC 2016-01-19 10:14:57
Tagged date : UTC 2016-01-19 10:14:57
Menu For : 1

Audio #1
ID : 2
Format : AAC
Format/Info : Advanced Audio Codec
Format profile : LC
Codec ID : 40
Duration : 1h 53mn
Bit rate mode : Variable
Bit rate : 196 Kbps
Maximum bit rate : 329 Kbps
Channel(s) : 2 channels
Channel positions : Front: L R
Sampling rate : 48.0 KHz
Frame rate : 46.875 fps (1024 spf)
Compression mode : Lossy
Stream size : 160 MiB (3%)
Title : Russian Stereo
Language : Russian
Default : Yes
Alternate group : 1
Encoded date : UTC 2016-01-19 09:50:18
Tagged date : UTC 2016-01-19 09:50:35
Fallback From : 3
Menus : 6

Audio #2
ID : 3
Format : AC-3
Format/Info : Audio Coding 3
Mode extension : CM (complete main)
Format settings, Endianness : Big
Codec ID : ac-3
Duration : 1h 53mn
Bit rate mode : Constant
Bit rate : 640 Kbps
Channel(s) : 6 channels
Channel positions : Front: L C R, Side: L R, LFE
Sampling rate : 48.0 KHz
Frame rate : 31.250 fps (1536 spf)
Bit depth : 16 bits
Compression mode : Lossy
Stream size : 522 MiB (11%)
Title : Russian DD 5.1
Language : Russian
Default : Inherited From: 2
Alternate group : 1
Encoded date : UTC 2016-01-19 09:50:18
Tagged date : UTC 2016-01-19 09:50:28
Fallback To : 2

Text #1
ID : 4
Format : Timed Text
Muxing mode : sbtl
Codec ID : tx3g
Duration : 1h 50mn
Bit rate mode : Variable
Bit rate : 105 bps
Stream size : 85.0 KiB (0%)
Title : Russian Subtitle
Language : Russian
Default : Yes
Forced : No
Alternate group : 2
Encoded date : UTC 2016-01-19 09:52:30
Tagged date : UTC 2016-01-19 09:52:30

Text #2
ID : 5
Format : Timed Text
Muxing mode : sbtl
Codec ID : tx3g
Duration : 1h 50mn
Bit rate mode : Variable
Bit rate : 54 bps
Stream size : 44.0 KiB (0%)
Title : English Subtitle
Language : English
Default : No
Forced : No
Alternate group : 2
Encoded date : UTC 2016-01-19 09:52:30
Tagged date : UTC 2016-01-19 09:52:30

Menu #1
00:00:00.000 : 1
00:05:01.051 : 2
00:11:54.130 : 3
00:19:10.107 : 4
00:27:15.592 : 5
00:33:31.092 : 6
00:40:29.260 : 7
00:48:02.421 : 8
00:53:07.226 : 9
01:00:14.402 : 10
01:06:32.322 : 11
01:11:17.064 : 12
01:17:11.085 : 13
01:23:31.256 : 14
01:30:41.811 : 15
01:38:45.628 : 16
01:43:28.619 : 17
01:49:03.454 : 18

Menu #2
ID : 6
Codec ID : text
Duration : 1h 53mn
Title : Chapter Titles
Language : Russian
Encoded date : UTC 2016-01-19 10:14:53
Tagged date : UTC 2016-01-19 10:14:53
Menu For : 2,1
00:00:00.000 : 1
00:05:01.051 : 2
00:11:54.130 : 3
00:19:10.107 : 4
00:27:15.592 : 5
00:33:31.092 : 6
00:40:29.260 : 7
00:48:02.421 : 8
00:53:07.226 : 9
01:00:14.402 : 10
01:06:32.322 : 11
01:11:17.064 : 12
01:17:11.085 : 13
01:23:31.256 : 14
01:30:41.811 : 15
01:38:45.628 : 16
01:43:28.619 : 17
01:49:03.454 : 18
Bit rate mode : VBR
HandBrakeCLI -i "/Ironiya.Sudby.Prodoljenie.2007.Blu-ray/BDMV/STREAM/00003.m2ts" -t 1 -o "Ironiya.Sudbi.480p.rus.m4v" -f mp4 -I -O -w 640 -l 340 --crop 156:156:2:0 --custom-anamorphic --modulus 4 --pixel-aspect 852:640 -e x264 -b 1600 -2 -a none -x cabac=0:ref=2:me=umh:bframes=0:weightp=0:subq=6:8x8dct=0:trellis=0:vbv-maxrate=5000:vbv-bufsize=5000 --verbose=1

x264 [info]: frame I:2275  Avg QP:17.51  size: 30901  PSNR Mean Y:45.98 U:47.71 V:48.92 Avg:46.60 Global:46.03
x264 [info]: frame P:161625 Avg QP:20.05  size:  8024  PSNR Mean Y:43.41 U:45.02 V:46.22 Avg:44.00 Global:43.49
x264 [info]: mb I  I16..4: 21.3%  0.0% 78.7%
x264 [info]: mb P  I16..4:  1.1%  0.0%  3.4%  P16..4: 47.1% 25.0% 10.4%  0.0%  0.0%    skip:13.0%
x264 [info]: coded y,uvDC,uvAC intra: 68.7% 85.6% 71.1% inter: 32.8% 40.4% 13.4%
x264 [info]: i16 v,h,dc,p: 52% 13%  8% 28%
x264 [info]: i4 v,h,dc,ddl,ddr,vr,hd,vl,hu: 38% 12% 13%  5%  7%  8%  5%  7%  4%
x264 [info]: i8c dc,h,v,p: 44% 14% 32% 11%
x264 [info]: ref P L0: 73.3% 26.7%
x264 [info]: SSIM Mean Y:0.9804127 (17.080db)
x264 [info]: PSNR Mean Y:43.447 U:45.058 V:46.256 Avg:44.036 Global:43.514 kb/s:1600.01
HandBrakeCLI -i "/Ironiya.Sudby.Prodoljenie.2007.Blu-ray/BDMV/STREAM/00003.m2ts" -t 1 -o "Ironiya.Sudbi.720p.rus.m4v" -f mp4 -4 -O -w 1280 -l 512 --crop 156:156:2:0 --modulus 16 -e x264 -b 5000 -2 -a none -x cabac=0:ref=3:me=umh:b-pyramid=none:b-adapt=2:weightb=0:trellis=0:weightp=0:vbv-maxrate=9500:vbv-bufsize=9500:subq=9:merange=32:deblock=-3,-2:qcomp=0.60:qpmin=0:qpmax=69:fast_pskip=0:aq-strength=0.8:no-dct-decimate=1:psy-rd=1.00,0.25 --verbose=1

x264 [info]: frame I:1558  Avg QP:16.52  size:113461  PSNR Mean Y:46.71 U:48.66 V:49.94 Avg:47.39 Global:46.97
x264 [info]: frame P:54212 Avg QP:19.31  size: 45253  PSNR Mean Y:44.01 U:46.43 V:48.11 Avg:44.81 Global:44.27
x264 [info]: frame B:108130 Avg QP:21.57  size: 15085  PSNR Mean Y:42.46 U:44.91 V:47.39 Avg:43.31 Global:42.71
x264 [info]: consecutive B-frames:  2.2% 15.5% 42.2% 40.1%
x264 [info]: mb I  I16..4:  9.4% 58.5% 32.1%
x264 [info]: mb P  I16..4:  2.3%  8.3%  3.6%  P16..4: 40.0% 28.1% 12.2%  0.0%  0.0%    skip: 5.4%
x264 [info]: mb B  I16..4:  0.3%  1.4%  0.5%  B16..8: 47.3% 13.1%  2.7%  direct: 7.6%  skip:27.0%  L0:40.5% L1:48.3% BI:11.2%
x264 [info]: 8x8 transform intra:59.1% inter:46.0%
x264 [info]: coded y,uvDC,uvAC intra: 82.5% 86.0% 71.3% inter: 35.8% 40.4% 20.6%
x264 [info]: i16 v,h,dc,p: 56% 13%  7% 24%
x264 [info]: i8 v,h,dc,ddl,ddr,vr,hd,vl,hu:  9%  7%  5% 11% 16% 15% 14% 12% 10%
x264 [info]: i4 v,h,dc,ddl,ddr,vr,hd,vl,hu: 10%  7%  5% 11% 17% 16% 13% 12%  9%
x264 [info]: i8c dc,h,v,p: 51% 15% 20% 14%
x264 [info]: ref P L0: 70.8% 18.1% 11.1%
x264 [info]: ref B L0: 81.4% 18.6%
x264 [info]: SSIM Mean Y:0.9686833 (15.042db)
x264 [info]: PSNR Mean Y:43.010 U:45.447 V:47.653 Avg:43.847 Global:43.195 kb/s:4986.72

Релиз подготовлен для просмотра на Apple TV, iPad, iPhone, iPod Touch.
Для просмотра данного релиза на компьютере с ОС Windows рекомендуется использовать VLC media player

Трекер:  [ 07-Фев-2018 00:12 ]

  

Скачать .torrent

Размер .torrent файла 61 KB


Размер: 6.02 GB
Хэш (hash) релиза: 971a7ec55f43a2193d7ed3b8e9f20692268256ce

Еще никто не оставлял запись к записи скачать торрент Ирония судьбы. Продолжение . Будь первым!

!Обратная связь