Êîììåíòàðèåâ: | 1440p 2k HD | HDtracks

Скачать через торрент купидонов шоколад ТВ-2 Aishen Qiaokeli-ing TV-2 бесплатно Аниме Все серии на русском torrent

Статистика раздачи
Размер:  791 MB   |    Зарегистрирован:  3 месяца 17 дней   |    .torrent скачан:  40 раз   |   
Раздают:  1  
   
загрузка...
 
Автор Сообщение

Galfimbul

avatar Galfimbul


купидонов шоколад ТВ-2 / Aishen Qiaokeli-ing TV-2

Страна: Китай
Год выпуска: 2017
Жанр: Комедия, Драма,романтика
Тип: ONA
Продолжительность: "15 эп, ~19 мин. серия"
Режиссер: Сён Ке
Студия: Tencent Animation

Описание: Дзян Хао всё так же помогает влюблённым в него девушкам. Но скоро помощь понадобится ему.

Качество: WEBRip
Тип релиза: Хардсаб
Формат видео: MP4
Совместимость с бытовыми плеерами: Нет
Видео: AVC,1980"1080,(kbps)2700,25 fps
Аудио: AAC,192 (kbps),2 (ch) Язык Русский (в составе контейнера) ; Озвучка: многоголосая-Студийная Банда,Язык субтитров-Китайский ; Перевод: хардсаб

Первый сезон здесь-...5337425
Format : MPEG-4Format profile : Base MediaCodec ID : isom (isom/iso2/avc1/mp41)File size : 388 MiBDuration : 18 min 33 sOverall bit rate : 2 926 kb/sWriting application : Lavf57.83.100

VideoID : 1Format : AVCFormat/Info : Advanced Video CodecFormat profile : [email protected] settings, CABAC : YesFormat settings, ReFrames : 4 framesCodec ID : avc1Codec ID/Info : Advanced Video CodingDuration : 18 min 28 sBit rate : 2 739 kb/sWidth : 1 920 pixelsHeight : 1 080 pixelsDisplay aspect ratio : 16:9Frame rate mode : ConstantFrame rate : 25.000 FPSColor space : YUVChroma subsampling : 4:2:0Bit depth : 8 bitsScan type : ProgressiveBits/(Pixel*Frame) : 0.053Stream size : 362 MiB (93%)Writing library : x264 core 144 r2525 40bb568Encoding settings : cabac=1 / ref=3 / deblock=1:0:0 / analyse=0x3:0x113 / me=hex / subme=7 / psy=1 / psy_rd=1.00:0.00 / mixed_ref=1 / me_range=16 / chroma_me=1 / trellis=1 / 8x8dct=1 / cqm=0 / deadzone=21,11 / fast_pskip=1 / chroma_qp_offset=-2 / threads=6 / lookahead_threads=1 / sliced_threads=0 / nr=0 / decimate=1 / interlaced=0 / bluray_compat=0 / constrained_intra=0 / bframes=3 / b_pyramid=2 / b_adapt=1 / b_bias=0 / direct=1 / weightb=1 / open_gop=0 / weightp=2 / keyint=250 / keyint_min=25 / scenecut=40 / intra_refresh=0 / rc_lookahead=40 / rc=crf / mbtree=1 / crf=23.0 / qcomp=0.60 / qpmin=0 / qpmax=69 / qpstep=4 / ip_ratio=1.40 / aq=1:1.00

AudioID : 2Format : AACFormat/Info : Advanced Audio CodecFormat profile : LCCodec ID : 40Duration : 18 min 33 sDuration_LastFrame : -1 msBit rate mode : ConstantBit rate : 192 kb/sChannel(s) : 2 channelsChannel positions : Front: L RSampling rate : 48.0 kHzFrame rate : 46.875 FPS (1024 spf)Compression mode : LossyStream size : 25.5 MiB (7%)Default : YesAlternate group : 1
1-2 из 15 серий.
Единственная раздача


Трекер:  [ 06-Фев-2018 23:30 ]

  

Скачать .torrent

Размер .torrent файла 16 KB


Размер: 791 MB
Хэш (hash) релиза: 47cd9e3e38d998ac342064e00cb97745eb92d019
Подписка на обновления:

Еще никто не оставлял запись к записи скачать торрент купидонов шоколад ТВ-2 Aishen Qiaokeli-ing TV-2 . Будь первым!

!Обратная связь