HAPPY ENDINGS | Voltron Force (2011-) | تحميل APK

Скачать через торрент [iPad] Безбашенные Renegades бесплатно русская версия torrent активатор

Статистика раздачи
Размер:  1.9 GB   |    Зарегистрирован:  3 месяца 17 дней   |    .torrent скачан:  51 раз   |   
Раздают:  1  
   
загрузка...
 
Автор Сообщение

Galfimbul

avatar Galfimbul


Безбашенные / Renegades
«5 морских котиков. $ 300 миллионов золотом. 1 невыполнимая миссия»

5.544 / 10 5.60 / 10
Год выпуска: 2017
Страна: Франция, Германия
Жанр: Боевик, триллер
Продолжительность: 01:45:36

Перевод: Дублированный (iTunes)
Оригинальная аудиодорожка: Есть
Cубтитры: Английские форсированные
Режиссёр: Стивен Куэйл
Сценарий: Ричард Уэнк, Люк Бессон
Продюсер: Рафаэль Бенолье, Люк Бессон, Фабрис Дельвиль
Оператор: Брайан Пирсон
Композитор: Эрик Серра
Художник: Юг Тиссандье, Михаэль Фисснайдер, Иво Хусняк
Монтаж: Флоран Вассо
В ролях: Дж.К. Симмонс, Чарли Бьюли, Салливан Степлтон, Юэн Бремнер, Сильвия Хукс, Джошуа Генри, Марк Ходапп, Марко Парадзик, Диармед Мёрта, Димитрий Леонидас

Бюджет: €66 190 000
Сборы в России: $185 345

Мировая премьера: 1 сентября 2017
Премьера (РФ): 5 октября 2017, «MEGOGO Distribution»

Цифровой релиз: 05 февраля 2018, «Megogo Distribution»

Описание: На дне озера охваченной войной Боснии команда спецназа ВМС США «Морские котики» находит клад — золотые слитки стоимостью более $300 млн. Миссия команды, нарушившей присягу и рискующей жизнью — поднять золото со дна озера. Для других она была бы невыполнимой, но только не для этих безбашенных парней: у них есть 10 часов, чтобы завершить задуманное.
Качество исходника: WEB-DL 1080p (BlueBird)
Качество: WEB-DLRip
Тип: SD (576p)
Контейнер: M4V
Видео: H.264, 1024x432, 2.40:1, 2 200 Kbps, 23.976 fps

Аудио 1: Русский/Дублированный (iTunes), AAC / 2.0 / 128 Kbps / 48.0 KHz
Аудио 2: Английский/Оригинальная дорожка , AAC / 2.0 / 128 Kbps / 48.0 KHz
Аудио 3: Украинский/Дублированный (Cтудия ААА-sound), AAC / 2.0 / 128 Kbps / 48.0 KHz

Субтитры: Английские форсированные
Sort Name: Безбашенные
XID: Apple:vendor_id:2017-893984
contentID: 1327597704
Screenwriters: Ричард Уэнк, Люк Бессон
Producers: Рафаэль Бенолье, Люк Бессон, Фабрис Дельвиль
Director: Стивен Куэйл
Cast: Дж.К. Симмонс, Чарли Бьюли, Салливан Степлтон, Юэн Бремнер, Сильвия Хукс, Джошуа Генри, Марк Ходапп, Марко Парадзик, Диармед Мёрта, Димитрий Леонидас
Studio: Belga Productions, CB Films, Canal +
Rating: 4
Long Description: На дне озера охваченной войной Боснии команда спецназа ВМС США «Морские котики» находит клад — золотые слитки стоимостью более $300 млн. Миссия команды, нарушившей присягу и рискующей жизнью — поднять золото со дна озера. Для других она была бы невыполнимой, но только не для этих безбашенных парней: у них есть 10 часов, чтобы завершить задуманное.
Description: На дне озера охваченной войной Боснии команда спецназа ВМС США «Морские котики» находит клад — золотые слитки стоимостью более $300 млн.
Release Date: 2017-10-05T07:00:00Z
Genre: Боевики и приключения
Artist: Steven Quale
Name: Безбашенные
General
Complete name : /Users/imac/HandBrake/Renegades.(SD).(pk).m4v
Format : MPEG-4
Codec ID : M4V
File size : 1.90 GiB
Duration : 1h 45mn
Overall bit rate mode : Variable
Overall bit rate : 2 579 Kbps
Movie name : Безбашенные
Performer : Steven Quale
Director : Стивен Куэйл
Actor : Дж.К. Симмонс / Чарли Бьюли / Салливан Степлтон / Юэн Бремнер / Сильвия Хукс / Джошуа Генри / Марк Ходапп / Марко Парадзик / Диармед Мёрта / Димитрий Леонидас
Screenplay by : Ричард Уэнк / Люк Бессон
Producer : Рафаэль Бенолье / Люк Бессон / Фабрис Дельвиль
Production studio : Belga Productions, CB Films, Canal +
Genre : Боевики и приключения
ContentType : Short Film
Description : На дне озера охваченной войной Боснии команда спецназа ВМС США «Морские котики» находит клад — золотые слитки стоимостью более $300 млн.
Recorded date : UTC 2017-10-05 07:00:00
Encoded date : UTC 2018-02-06 16:50:56
Tagged date : UTC 2018-02-06 17:01:10
Cover : Yes
Rating : None
Title/Sort : Безбашенные
LongDescription : На дне озера охваченной войной Боснии команда спецназа ВМС США «Морские котики» находит клад — золотые слитки стоимостью более $300 млн. Миссия команды, нарушившей присягу и рискующей жизнью — поднять золото со дна озера. Для других она была бы невыполнимой, но только не для этих безбашенных парней: у них есть 10 часов, чтобы завершить задуманное.
AppleStoreCatalogID : 1327597704
Vendor : Apple:vendor_id:2017-893984
ContentRating : mpaa|PG-13|300|

Video #1
ID : 1
Format : AVC
Format/Info : Advanced Video Codec
Format profile : [email protected]
Format settings, CABAC : Yes
Format settings, ReFrames : 9 frames
Codec ID : avc1
Codec ID/Info : Advanced Video Coding
Duration : 1h 45mn
Source duration : 1h 45mn
Bit rate : 2 200 Kbps
Width : 1 024 pixels
Height : 432 pixels
Display aspect ratio : 2.40:1
Frame rate mode : Variable
Frame rate : 23.976 fps
Minimum frame rate : 23.974 fps
Maximum frame rate : 23.981 fps
Color space : YUV
Chroma subsampling : 4:2:0
Bit depth : 8 bits
Scan type : Progressive
Bits/(Pixel*Frame) : 0.207
Stream size : 1.62 GiB (85%)
Source stream size : 1.62 GiB (85%)
Title : Main Program
Writing library : x264 core 148 r2708 86b7198
Encoding settings : cabac=1 / ref=9 / deblock=1:0:0 / analyse=0x3:0x113 / me=umh / subme=9 / psy=1 / psy_rd=1.00:0.00 / mixed_ref=1 / me_range=32 / chroma_me=1 / trellis=1 / 8x8dct=1 / cqm=0 / deadzone=21,11 / fast_pskip=1 / chroma_qp_offset=-2 / threads=13 / lookahead_threads=1 / sliced_threads=0 / nr=0 / decimate=1 / interlaced=0 / bluray_compat=0 / constrained_intra=0 / bframes=6 / b_pyramid=2 / b_adapt=2 / b_bias=0 / direct=1 / weightb=1 / open_gop=0 / weightp=2 / keyint=240 / keyint_min=24 / scenecut=40 / intra_refresh=0 / rc_lookahead=40 / rc=2pass / mbtree=1 / bitrate=2200 / ratetol=1.0 / qcomp=0.60 / qpmin=0 / qpmax=69 / qpstep=4 / cplxblur=20.0 / qblur=0.5 / ip_ratio=1.40 / aq=1:1.00
Language : English
Encoded date : UTC 2018-02-06 16:50:56
Tagged date : UTC 2018-02-06 16:51:01
Color range : Limited
Color primaries : BT.709
Transfer characteristics : BT.709
Matrix coefficients : BT.709

Video #2
ID : 7
Format : JPEG
Codec ID : jpeg
Duration : 1h 45mn
Bit rate mode : Variable
Bit rate : 204 bps
Width : 640 pixels
Height : 270 pixels
Display aspect ratio : 2.40:1
Frame rate mode : Variable
Frame rate : 0.001 fps
Minimum frame rate : 0.000 fps
Maximum frame rate : 0.002 fps
Color space : YUV
Chroma subsampling : 4:2:0
Bit depth : 8 bits
Compression mode : Lossy
Bits/(Pixel*Frame) : 1.181
Stream size : 99.5 KiB (0%)
Title : Chapter Inages
Language : English
Encoded date : UTC 2018-02-06 16:51:05
Tagged date : UTC 2018-02-06 16:51:05

Audio #1
ID : 2
Format : AAC
Format/Info : Advanced Audio Codec
Format profile : LC
Codec ID : 40
Duration : 1h 45mn
Source duration : 1h 45mn
Bit rate mode : Variable
Bit rate : 126 Kbps
Maximum bit rate : 178 Kbps
Channel(s) : 2 channels
Channel positions : Front: L R
Sampling rate : 48.0 KHz
Compression mode : Lossy
Stream size : 94.9 MiB (5%)
Source stream size : 94.9 MiB (5%)
Title : Russian Stereo
Language : Russian
Encoded date : UTC 2018-02-06 16:50:56
Tagged date : UTC 2018-02-06 16:51:04

Audio #2
ID : 3
Format : AAC
Format/Info : Advanced Audio Codec
Format profile : LC
Codec ID : 40
Duration : 1h 45mn
Source duration : 1h 45mn
Bit rate mode : Variable
Bit rate : 126 Kbps
Maximum bit rate : 177 Kbps
Channel(s) : 2 channels
Channel positions : Front: L R
Sampling rate : 48.0 KHz
Compression mode : Lossy
Stream size : 94.9 MiB (5%)
Source stream size : 94.9 MiB (5%)
Title : English Stereo
Language : English
Encoded date : UTC 2018-02-06 16:50:56
Tagged date : UTC 2018-02-06 16:51:04

Audio #3
ID : 4
Format : AAC
Format/Info : Advanced Audio Codec
Format profile : LC
Codec ID : 40
Duration : 1h 45mn
Source duration : 1h 45mn
Bit rate mode : Variable
Bit rate : 128 Kbps
Maximum bit rate : 177 Kbps
Channel(s) : 2 channels
Channel positions : Front: L R
Sampling rate : 48.0 KHz
Compression mode : Lossy
Stream size : 95.1 MiB (5%)
Source stream size : 95.1 MiB (5%)
Title : Ukrainian Stereo
Language : Ukrainian
Encoded date : UTC 2018-02-06 16:50:56
Tagged date : UTC 2018-02-06 16:51:04

Text
ID : 5
Format : Timed Text
Muxing mode : sbtl
Codec ID : tx3g
Duration : 1h 27mn
Bit rate mode : Variable
Bit rate : 3 bps
Stream size : 1.95 KiB (0%)
Title : English forced
Language : English
Encoded date : UTC 2018-02-06 16:50:57
Tagged date : UTC 2018-02-06 16:50:57

Menu #1
00:00:00.000 : Chapter 1
00:34:10.091 : Chapter 2
01:09:58.906 : Chapter 3
01:36:17.359 : Chapter 4

Menu #2
ID : 6
Codec ID : text
Duration : 1h 45mn
Language : English
Encoded date : UTC 2018-02-06 16:51:04
Tagged date : UTC 2018-02-06 16:51:04
Bit rate mode : CBR
00:00:00.000 : Chapter 1
00:34:10.091 : Chapter 2
01:09:58.906 : Chapter 3
01:36:17.359 : Chapter 4
x264 [info]: frame I:1626  Avg QP:11.30  size: 61947
x264 [info]: frame P:40186 Avg QP:14.00  size: 20499
x264 [info]: frame B:110111 Avg QP:15.78  size:  7427
x264 [info]: consecutive B-frames:  3.0%  4.6%  7.7% 62.9% 10.2% 10.0%  1.6%
x264 [info]: mb I  I16..4: 11.7% 65.1% 23.1%
x264 [info]: mb P  I16..4:  2.4% 10.7%  3.0%  P16..4: 33.0% 27.1% 16.2%  0.0%  0.0%    skip: 7.6%
x264 [info]: mb B  I16..4:  0.2%  1.3%  0.6%  B16..8: 35.4% 14.4%  3.8%  direct: 6.4%  skip:37.9%  L0:44.6% L1:43.5% BI:12.0%
x264 [info]: 8x8 transform intra:64.9% inter:68.4%
x264 [info]: coded y,uvDC,uvAC intra: 82.5% 82.0% 63.5% inter: 28.2% 24.3% 3.7%
x264 [info]: i16 v,h,dc,p: 34% 12%  9% 45%
x264 [info]: i8 v,h,dc,ddl,ddr,vr,hd,vl,hu: 10% 11%  9%  9% 12% 11% 13% 11% 15%
x264 [info]: i4 v,h,dc,ddl,ddr,vr,hd,vl,hu:  8% 10%  4%  9% 14% 13% 15% 11% 16%
x264 [info]: i8c dc,h,v,p: 46% 25% 16% 14%
x264 [info]: Weighted P-Frames: Y:3.9% UV:1.8%
x264 [info]: ref P L0: 52.8%  7.0% 16.3%  7.3%  5.2%  4.1%  3.2%  2.0%  1.8%  0.1%  0.0%
x264 [info]: ref B L0: 74.0% 12.1%  5.8%  2.9%  2.1%  1.7%  1.1%  0.4%
x264 [info]: ref B L1: 94.9%  5.1%
x264 [info]: kb/s:2199.63

Релиз подготовлен для просмотра на Apple TV, iPad, iPhone, iPod Touch.
Для просмотра данного релиза на компьютере с ОС Windows рекомендуется использовать VLC media player

Трекер:  [ 06-Фев-2018 20:42 ]

  

Скачать .torrent

Размер .torrent файла 38 KB


Размер: 1.9 GB
Хэш (hash) релиза: 4ad9b1105aa5140986df88ac165956c94b38491d

Еще никто не оставлял запись к записи скачать торрент [iPad] Безбашенные Renegades . Будь первым!

!Обратная связь