Jordan Hinson | tromeo and juliet | Watch movie

Скачать через торрент Танго нашего детства Фильм бесплатно в хорошем качестве torrent

Скачивайте на UnionPeer.org фильмы через торрент без регистрации. Новинки кино в хорошем качестве через торрент. На UnionPeer.org можно скачать через торрент фильмы 2014 и 2015 годов. Самые новые фильмы.

Скачать торрент Танго нашего детства бесплатно через .torrent фильм мультфильм сериал

Статистика раздачи
Размер:  1.49 GB   |    Зарегистрирован:  4 месяца 15 дней   |    .torrent скачан:  27 раз   |   
Раздают:  1  
   
загрузка...
 
Автор Сообщение

Galfimbul

avatar Galfimbul


Танго нашего детства

Жанр: Драма
Год выпуска: 1984
Продолжительность: 01:27:02
Режиссёр: Альберт Мкртчян

В ролях: Галя Новенц, Фрунзик Мкртчян, Элина Агамян, Азат Гаспарян, Наринэ Багдасярян, Самвел Саркисян, Ашот Геворкян, Арташес Налбандян, Арташес Гедикян, Маргарита Карапетян, Нора Петросян, Рубен Мкртчян, Александр Ованесян
Описание: Вернувшись с войны, Рубен оставляет семью и уходит к женщине, которая спасла ему жизнь. Гордая Сирануш не может смириться с этим и делает попытки образумить Рубена. Нелепые и беспомощные выходки детей и жены доводят его до такого состояния, что он, окончательно запутавшись в своих чувствах, совершает необдуманный поступок и попадает в тюрьму…


Релиз от: [img]/images/Banner-Korsar.gif[/img]
Семпл: http://multi-up.com/1185844

Качество видео: DVDRip-AVC
Формат видео: MKV

Видео: MPEG-4 AVC, [email protected] (4:3), 25 fps, 2250 Кбит/с
Аудио: 48 kHz, AC3 Dolby Digital, 2/0 (L,R) ch, ~192 kbps
x264 [info]: frame I:606 Avg QP:17.14 size: 65020
x264 [info]: frame P:34145 Avg QP:19.46 size: 25605
x264 [info]: frame B:95810 Avg QP:21.08 size: 5794
==================================================================
Общее
Уникальный идентификатор : 234899875659027050658655720486081385354 (0xB0B81208C76807F98E6822F8821BD38A)
Полное имя : D:\Танго нашего детства (1984).mkv
Формат : Matroska
Версия формата : Version 2
Размер файла : 1,49 Гбайт
Продолжительность : 1 ч. 27 м.
Общий поток : 2444 Кбит/сек
Дата кодирования : UTC 2017-08-03 05:04:21
Программа кодирования : mkvmerge v7.8.0 ('River Man') 32bit built on Apr 3 2015 12:11:22
Библиотека кодирования : libebml v1.3.1 + libmatroska v1.4.2

Видео
Идентификатор : 1
Формат : AVC
Формат/Информация : Advanced Video Codec
Профиль формата : [email protected]
Параметр CABAC формата : Да
Параметр ReFrames формата : 14 кадров
Идентификатор кодека : V_MPEG4/ISO/AVC
Продолжительность : 1 ч. 27 м.
Битрейт : 2250 Кбит/сек
Ширина : 700 пикселей
Высота : 560 пикселей
Соотношение сторон : 4:3
Соотношение сторон в оригинале : 4:3
Режим частоты кадров : Постоянный
Частота кадров : 25,000 кадров/сек
Цветовое пространство : YUV
Субдискретизация насыщенности : 4:2:0
Битовая глубина : 8 бит
Тип развёртки : Прогрессивная
Бит/(Пиксели*Кадры) : 0.230
Размер потока : 1,34 Гбайт (90%)
Библиотека кодирования : x264 core 148 r2744kMod b97ae06
Настройки программы : cabac=1 / ref=14 / deblock=1:-2:-2 / analyse=0x3:0x133 / me=umh / subme=10 / psy=1 / fade_compensate=0.00 / psy_rd=1.05:0.10 / mixed_ref=1 / me_range=32 / chroma_me=1 / trellis=2 / 8x8dct=1 / cqm=0 / deadzone=21,11 / fast_pskip=0 / chroma_qp_offset=-3 / threads=6 / lookahead_threads=1 / sliced_threads=0 / nr=0 / decimate=0 / interlaced=0 / bluray_compat=0 / constrained_intra=0 / bframes=10 / b_pyramid=2 / b_adapt=2 / b_bias=0 / direct=3 / weightb=1 / open_gop=0 / weightp=2 / keyint=250 / keyint_min=25 / scenecut=40 / intra_refresh=0 / rc=2pass / mbtree=0 / bitrate=2250 / ratetol=1.0 / qcomp=0.63 / qpmin=0 / qpmax=39 / qpstep=4 / cplxblur=20.0 / qblur=0.5 / ip_ratio=1.20 / pb_ratio=1.30 / aq=1:1.00
Язык : Russian
Default : Да
Forced : Нет
Цветовой диапазон : Limited
Основные цвета : BT.601 PAL
Характеристики трансфера : BT.470 System B, BT.470 System G
Коэффициенты матрицы : BT.601

Аудио
Идентификатор : 2
Формат : AC-3
Формат/Информация : Audio Coding 3
Параметр Endianness формата : Big
Идентификатор кодека : A_AC3
Продолжительность : 1 ч. 27 м.
Вид битрейта : Постоянный
Битрейт : 192 Кбит/сек
Каналы : 2 канала
Расположение каналов : Front: L R
Частота : 48,0 КГц
Частота кадров : 31,250 кадров/сек (1536 spf)
Битовая глубина : 16 бит
Метод сжатия : С потерями
Размер потока : 120 Мбайт (8%)
Язык : Russian
ServiceKind/String : Complete Main
Default : Да
Forced : Нет


Трекер:  [ 06-Фев-2018 19:24 ]

  

Скачать .torrent

Размер .torrent файла 15 KB


Размер: 1.49 GB
Хэш (hash) релиза: 1f08ef8794b574bcb9f64594e8ffc751c94485f9
Подписка на обновления:

Еще никто не оставлял запись к записи скачать торрент Танго нашего детства . Будь первым!

!Обратная связь