Beyoncé - I AM... World Tour. | Legends of Chamberlain Heights Season 2 (2017) | Once Fallen streaming vf

Скачать через торрент Если у вас нету тёти Сезон: 1 Фильм бесплатно в хорошем качестве torrent

Скачивайте на UnionPeer.org фильмы через торрент без регистрации. Новинки кино в хорошем качестве через торрент. На UnionPeer.org можно скачать через торрент фильмы 2014 и 2015 годов. Самые новые фильмы.

Скачать торрент Если у вас нету тёти Сезон: 1 бесплатно через .torrent фильм мультфильм сериал

Статистика раздачи
Размер:  5.72 GB   |    Зарегистрирован:  6 месяцев   |    .torrent скачан:  65 раз   |   
Раздают:  1  
   
загрузка...
 
Автор Сообщение

Galfimbul

avatar Galfimbul


Если у вас нету тёти
Год выпуска: 2007
Производство: «Megapolis Film Production", Star Media»
Жанр: Комедия
Продолжительность: ~ 48 мин.
Субтитры: Отсутствуют
Режиссер: Галина Сальгарелли
В ролях: Анна Каменкова, Елена Дробышева, Яна Чигир, Татьяна Кравченко, Илья Бутковский, Татьяна Лютаева, Андрей Градов, Александр Самойленко, Дмитрий Жулин, Александр Кольцов, Тамара Спиричева, Владимир Антоник, Алексей Франдетти, Николай Лазарев, Анна Антонова, Станислав Беляев, Эврика Асатрян, Павел Ремезов, Сергей Таланов, Наталия Лесниковская, Пётр Черняев, Дмитрий Ячевский, Игорь Фурманюк, Татьяна Пушкина (II), Ольга Смирнова (IV), Наталья Кислицына, Анна Гученкова, Игорь Куликовский, Анастасия Добрынина и др.
Описание: Как хорошо иметь тётю! Особенно из провинции. Особенно если вы москвичка, у вас все хорошо и вы абсолютно довольны жизнью. Тётя обязательно приедет к вам в гости, будьте уверены! И с этого момента все пойдет наперекосяк. Она вторгнется в ваше пространство, наведет там свои порядки, нарушит все ваши планы и непременно позаботится о вас – ведь тети такие заботливые. Она будет делать это ежедневно (естественно тётя приехала надолго) и будет помогать вам, помогать, помогать. Как бы вы не сопротивлялись! Вот тогда ваша жизнь перестанет быть лучезарной. И вы стремглав убежите из собственного дома навстречу... личному счастью. Поскольку вообще-то ваша тетя – Ангел. Только вы не сразу это заметили...



Релиз группы
Источник рипа - ExKinoRay
Семпл
Кино-Театр
Качество: WEBRip
Формат: AVI
Видео кодек: XviD
Аудио кодек: AC3
Видео: 720x400 (1.80:1), 25 fps, XviD build 73 ~1899 kbps avg, 0.26 bit/pixel
Аудио: 44.100 kHz, AC3 Dolby Digital, 2/0 (L,R) ch, ~192.00 kbps avg
Общее
Полное имя                               : D:\Если у вас нету тёти\Esli.u.vas.netu.tjety.S01E01.2007.WEBRip.RG.Russkie.serialy.avi
Формат                                   : AVI
Формат/Информация                        : Audio Video Interleave
Размер файла                             : 722 Мбайт
Продолжительность                        : 48 м. 2 с.
Общий поток                              : 2101 Кбит/сек
Программа кодирования                    : VirtualDubMod 1.5.10.3 | www.virtualdub-fr.org || (build 2550/release)
Библиотека кодирования                   : VirtualDubMod build 2550/release

Видео
Идентификатор                            : 0
Формат                                   : MPEG-4 Visual
Профиль формата                          : Advanced [email protected]
Настройки формата                        : BVOP2 / Custom Matrix
Параметр BVOP формата                    : 2
Параметр QPel формата                    : Нет
Параметр GMC формата                     : Без точки перехода
Параметр матрицы формата                 : Выборочная
Идентификатор кодека                     : XVID
Идентификатор кодека/Подсказка           : XviD
Продолжительность                        : 48 м. 2 с.
Битрейт                                  : 1900 Кбит/сек
Ширина                                   : 720 пикселей
Высота                                   : 400 пикселей
Соотношение сторон                       : 16:9
Частота кадров                           : 25,000 кадров/сек
Цветовое пространство                    : YUV
Субдискретизация насыщенности            : 4:2:0
Битовая глубина                          : 8 бит
Тип развёртки                            : Прогрессивная
Метод сжатия                             : С потерями
Бит/(Пиксели*Кадры)                      : 0.264
Размер потока                            : 653 Мбайт (90%)
Библиотека кодирования                   : XviD 73

Аудио
Идентификатор                            : 1
Формат                                   : AC-3
Формат/Информация                        : Audio Coding 3
Идентификатор кодека                     : 2000
Продолжительность                        : 48 м. 2 с.
Вид битрейта                             : Постоянный
Битрейт                                  : 192 Кбит/сек
Каналы                                   : 2 канала
Расположение каналов                     : Front: L R
Частота                                  : 44,1 КГц
Частота кадров                           : 28,711 кадров/сек (1536 SPF)
Битовая глубина                          : 16 бит
Метод сжатия                             : С потерями
Размер потока                            : 66,0 Мбайт (9%)
Выравнивание                             : Разделение по промежуткам
Продолжительность промежутка             : 40  мс. (1,00 видеокадр)
Время предзагрузки промежутка            : 500  мс.
ServiceKind/String                       : Complete Main


Трекер:  [ 06-Фев-2018 19:18 ]

  

Скачать .torrent

Размер .torrent файла 29 KB


Размер: 5.72 GB
Хэш (hash) релиза: 280f1cbd6e81885cf3be099b27ca4e917f7c76a1
Подписка на обновления:

Еще никто не оставлял запись к записи скачать торрент Если у вас нету тёти Сезон: 1 . Будь первым!

!Обратная связь