May 1, 2018 | Fairy Tail 121 | Akage no Anne

Скачать через торрент Чужая дочь Серии: 1-8 из 8 Фильм бесплатно в хорошем качестве torrent

Скачивайте на UnionPeer.org фильмы через торрент без регистрации. Новинки кино в хорошем качестве через торрент. На UnionPeer.org можно скачать через торрент фильмы 2014 и 2015 годов. Самые новые фильмы.

Скачать торрент Чужая дочь Серии: 1-8 из 8 бесплатно через .torrent фильм мультфильм сериал

Статистика раздачи
Размер:  13.22 GB   |    Зарегистрирован:  3 месяца 14 дней   |    .torrent скачан:  87 раз   |   
Раздают:  1  
   
загрузка...
 
Автор Сообщение

Galfimbul

avatar Galfimbul


Чужая дочь

Год выпуска: 2016
Производство: Ферст Лайн Пикчерс
Жанр: драма, криминал
Продолжительность: ~00:50:00 серия
Субтитры: нет

Режиссёр: Сергей Газаров

В ролях: Игорь Петренко, Андрей Смоляков, Анатолий Кот, Михаил Горевой, Надежда Михалкова, Эльвира Болгова, Сергей Насибов, Любовь Толкалина, Валентина Ляпина, Семён Трескунов, Юлия Сорокина, Владимир Капустин, Фёдор Лавров, Сергей Жигунов, Дмитрий Смирнов
Описание: Бывший автогонщик Максим Авдеев 10 лет провел в тюрьме по ложному обвинению. Его жена Ирина погибла при трагических обстоятельствах, дочь Сашу удочерила приемная семья, а виновник случившегося остался на свободе. Выйдя из тюрьмы, Максим дает себе слово не мстить и не жалеть себя. Единственное, чего он хочет, — увидеться с повзрослевшей дочерью. Давний друг Авдеева помогает ему обустроить новую жизнь и найти девочку, но это оказывается не так просто...

Доп. информация: Премьера сериала состоялась на Первом канале 5 февраля 2018 года.

Реклама: Нет.

Кинопоиск

Sample

Качество: WEBRip 1080p - Getty
Формат: MKV
Видео кодек: H.264
Аудио кодек: AC3
Видео: MPEG4 AVC Video, H264, 16:9, 1920x1080, 25 fps, ~4500 kbps, 0.087 bit/pixel
Аудио: AC3 Dolby Digital, 48.0 kHz, 2/0 (L,R) ch, 192 kbps
Раздача ведётся путём добавления новых серий, при каждом добавлении создаётся новый торрент. Чтобы начать докачку новой серии, пользователям необходимо сделать следующее:

- Остановить скачивание.
- Удалить старый торрент у себя из клиента (старые серии удалять не надо).
- Скачать новый торрент и запустить его у себя в клиенте вместо старого, при этом указать клиенту путь в старую папку куда и должно происходить скачивание новых серий.

Ваш клиент при этом должен произвести хеширование (проверку) старой папки (если не производит сам - помогите ему сделать это), и будет докачивать только те серии которых у вас ещё нет. Старые серии при этом не удаляются, а продолжают раздаваться!
Если вы уже удалили старые серии, то предотвратить повторную закачку старых серий можно, отжав галочку в соответствующих местах при запуске нового торрента. По возможности, желательно не удалять старые серии как можно дольше, чтобы релизер не столько продолжал раздавать старые серии, а смог сконцентрироваться на новых.
General
Unique ID : 254888867940300715636263099365908194729 (0xBFC1CF71819DB93181E15876A6E6A5A9)
Complete name : D:\Chuzhaja.doch.2016.WEB-DL.(1080p).Getty\Chuzhaja.doch.e01.2016.WEB-DL.(1080p).Getty.mkv
Format : Matroska
Format version : Version 4 / Version 2
File size : 1.70 GiB
Duration : 50mn 35s
Overall bit rate mode : Constant
Overall bit rate : 4 822 Kbps
Movie name : Chuzhaja.doch.e01.2016.WEB-DL.(1080p).Getty
Encoded date : UTC 2018-02-05 19:55:43
Writing application : mkvmerge v7.8.0 ('River Man') 32bit built on Mar 27 2015 16:18:02
Writing library : libebml v1.3.1 + libmatroska v1.4.2
DURATION : 00:50:35.424000000
NUMBER_OF_FRAMES : 94857
NUMBER_OF_BYTES : 72850176
_STATISTICS_WRITING_APP : mkvmerge v7.8.0 ('River Man') 32bit built on Mar 27 2015 16:18:02
_STATISTICS_WRITING_DATE_UTC : 2018-02-05 19:55:43
_STATISTICS_TAGS : BPS DURATION NUMBER_OF_FRAMES NUMBER_OF_BYTES

Video
ID : 1
Format : AVC
Format/Info : Advanced Video Codec
Format profile : [email protected]
Format settings, CABAC : Yes
Format settings, ReFrames : 4 frames
Codec ID : V_MPEG4/ISO/AVC
Duration : 50mn 35s
Bit rate mode : Constant
Bit rate : 4 534 Kbps
Nominal bit rate : 4 800 Kbps
Width : 1 920 pixels
Height : 1 080 pixels
Display aspect ratio : 16:9
Frame rate mode : Constant
Frame rate : 25.000 fps
Color space : YUV
Chroma subsampling : 4:2:0
Bit depth : 8 bits
Scan type : Progressive
Bits/(Pixel*Frame) : 0.087
Stream size : 1.60 GiB (94%)
Default : Yes
Forced : No

Audio
ID : 2
Format : AC-3
Format/Info : Audio Coding 3
Mode extension : CM (complete main)
Format settings, Endianness : Big
Codec ID : A_AC3
Duration : 50mn 35s
Bit rate mode : Constant
Bit rate : 192 Kbps
Channel count : 2 channels
Channel positions : Front: L R
Sampling rate : 48.0 KHz
Bit depth : 16 bits
Compression mode : Lossy
Stream size : 69.5 MiB (4%)
Default : Yes
Forced : No


Трекер:  [ 09-Фев-2018 00:25 ]

  

Скачать .torrent

Размер .torrent файла 67 KB


Размер: 13.22 GB
Хэш (hash) релиза: b29e8b8ed6f3abda24c0acd0a60c098d7e97ad05
Подписка на обновления:

Торренты, похожие на Чужая дочь Серии: 1-8 из 8 скачать торрент

Форум Название Автор Размер S L Добавлен
Российские сериалы ·· Чужая дочь / Серии: 1-8 из 8 (Сергей Газаров) [2016, драма, криминал, HDTVRip 720p] Galfimbul 107273183429.99 GB 0 0 1517910687

12:51

6-Фев-18

Российские сериалы ·· Чужая дочь / Серии: 1-8 из 8 (Сергей Газаров) [2018, Драма, криминал, WEBRip] Galfimbul 54466990085.07 GB 0 0 1517867556

00:52

6-Фев-18

Российские сериалы ·· Чужая дочь / Серии: 1-8 из 8 (Сергей Газаров) [2016,драма, криминал, SATRip-AVC] aleksan55 49163192544.58 GB 0 0 1517850878

20:14

5-Фев-18

bot

Раздача обновлена!
Перекачайте торрент-файл.

bot

Раздача обновлена!
Перекачайте торрент-файл.

bot

Раздача обновлена!
Перекачайте торрент-файл.

Хотите добавить комментарий к записи скачать торрент Чужая дочь Серии: 1-8 из 8

!Обратная связь