Matt Gerald
Caitriona Balfe

Скачать через торрент Легенда о Коловрате Фильм бесплатно в хорошем качестве torrent

Скачивайте на UnionPeer.org фильмы через торрент без регистрации. Новинки кино в хорошем качестве через торрент. На UnionPeer.org можно скачать через торрент фильмы 2014 и 2015 годов. Самые новые фильмы.

Скачать торрент Легенда о Коловрате бесплатно через .torrent фильм мультфильм сериал

Если у вас наблюдаются проблемы со скриншотами, переходом по ссылками, скачиванием торрентов - проблемы в блокировщике рекламы AdBlock. #хорошегоДня!


Статистика раздачи
Размер:  4.03 GB   |    Зарегистрирован:  18 дней   |    .torrent скачан:  420 раз   |   
Раздают:  6  
   
Загрузка...
 
Автор Сообщение

Galfimbul

avatar Galfimbul


«Героем может стать каждый»

Легенда о Коловрате

Год выхода: 2017
Жанр: История, боевик, фэнтези
Режиссер: Джаник Файзиев, Иван Шурховецкий
В ролях: Илья Малаков, Полина Чернышова, Алексей Серебряков, Александр Ильин мл., Игорь Савочкин, Тимофей Трибунцев, Александр Цой, Юлия Хлынина, Андрей Бурковский, Виктор Проскурин

О фильме:
XIII век. Русь раздроблена и вот-вот падет на колени перед ханом Золотой Орды Батыем. Испепеляя города и заливая русские земли кровью, захватчики не встречают серьезного сопротивления, и лишь один воин бросает им вызов. Молодой рязанский витязь Евпатий Коловрат возглавляет отряд смельчаков, чтобы отомстить за свою любовь и за свою родину. Его отвага поразит даже Батыя, а его имя навсегда останется в памяти народа. Воин, ставший легендой. Подвиг, сохранившийся в веках.



Страна: Россия
Студия: Централ Партнершип, Киностудия КИТ, Продюсерский центр ИВАН
Продолжительность: 01:53:03
Перевод: Не требуется | iTunes

Файл
Качество: WEB-DL 1080p
Кодек: MPEG-4 AVC
Видео: 1920x806 (2,40:1), 25 fps, MPEG-4 AVC ~ 4712 kbps avg, 0.122 bit/pixel
Аудио: AC3, 48 kHz, 6 ch, ~384.00 kbps avg | русский |
Субтитры: Отсутствуют
Общее
Уникальный идентификатор : 247818987767293087051335338610207282640 (0xBA7033705644C496B1F337B6932CD5D0)
Полное имя : Legenda.o.Kovovrate.2017.O.WEB-DL.1O8Op.mkv
Формат : Matroska
Версия формата : Version 4 / Version 2
Размер файла : 4,03 Гбайт
Продолжительность : 1 ч. 53 м.
Общий поток : 5098 Кбит/сек
Дата кодирования : UTC 2018-02-05 22:08:33
Программа кодирования : mkvmerge v9.7.1 ('Pandemonium') 64bit
Библиотека кодирования : libebml v1.3.4 + libmatroska v1.4.5

Видео
Идентификатор : 1
Формат : AVC
Формат/Информация : Advanced Video Codec
Профиль формата : [email protected]
Настройки формата : CABAC / 5 Ref Frames
Параметр CABAC формата : Да
Параметр ReFrames формата : 5 кадров
Идентификатор кодека : V_MPEG4/ISO/AVC
Продолжительность : 1 ч. 53 м.
Битрейт : 4712 Кбит/сек
Ширина : 1920 пикселей
Высота : 806 пикселей
Соотношение сторон : 2,40:1
Режим частоты кадров : Постоянный
Частота кадров : 25,000 кадров/сек
Цветовое пространство : YUV
Субдискретизация насыщенности : 4:2:0
Битовая глубина : 8 бит
Тип развёртки : Прогрессивная
Бит/(Пиксели*Кадры) : 0.122
Размер потока : 3,72 Гбайт (92%)
Заголовок : Legenda.o.Kovovrate.2017.O.WEB-DL.1O8Op
Язык : English
Default : Да
Forced : Нет
Цветовой диапазон : Limited
Основные цвета : BT.709
Характеристики трансфера : BT.709
Коэффициенты матрицы : BT.709

Аудио
Идентификатор : 2
Формат : AC-3
Формат/Информация : Audio Coding 3
Идентификатор кодека : A_AC3
Продолжительность : 1 ч. 53 м.
Вид битрейта : Постоянный
Битрейт : 384 Кбит/сек
Каналы : 6 каналов
Расположение каналов : Front: L C R, Side: L R, LFE
Частота : 48,0 КГц
Частота кадров : 31,250 кадров/сек (1536 SPF)
Битовая глубина : 16 бит
Метод сжатия : С потерями
Размер потока : 310 Мбайт (8%)
Заголовок : iTunes
Язык : Russian
Default : Да
Forced : Нет

Меню
00:00:00.000 : en:Глава 1
00:07:57.640 : en:Глава 2
00:14:50.360 : en:Глава 3
00:22:21.920 : en:Глава 4
00:29:03.240 : en:Глава 5
00:36:26.680 : en:Глава 6
00:42:17.000 : en:Глава 7
00:48:10.240 : en:Глава 8
00:54:52.680 : en:Глава 9
01:01:46.480 : en:Глава 10
01:10:23.800 : en:Глава 11
01:18:15.000 : en:Глава 12
01:22:01.840 : en:Глава 13
01:27:50.480 : en:Глава 14
01:33:55.360 : en:Глава 15
01:39:54.840 : en:Глава 16
Источник http://arutor.org

Трекер:  [ 06-Фев-2018 01:30 ]

  

Скачать .torrent

Размер .torrent файла 10 KB


Размер: 4.03 GB
Хэш (hash) релиза: d003e3c11c581e3cc17d2451428a25d5ebce4cf2
Подписка на обновления:

Торренты, похожие на Легенда о Коловрате скачать торрент

Форум Название Автор Размер S L Добавлен
Российские фильмы до 2016 ·· Легенда о Коловрате (Джаник Файзиев, Иван Шурховецкий) [2017, история, боевик, фэнтези, WEB-DLRip] Galfimbul 783124480747 MB 0 0 1517979549

07:59

7-Фев-18

Российские фильмы до 2016 ·· Легенда о Коловрате (Джаник Файзиев, Иван Шурховецкий) [2017, Россия, история, боевик, фэнтези, WEB-DLRip] Galfimbul 23420948482.18 GB 2 0 1517954261

00:57

7-Фев-18

Российские фильмы 2016-2018 (Новинки русского кино) ·· Легенда о Коловрате (Джаник Файзиев, Иван Шурховецкий) [2017 г., история, боевик, фэнтези, WEB-DLRip] | iTunes Galfimbul 22052106242.05 GB 2 0 1517908503

12:15

6-Фев-18

Российские фильмы до 2016 ·· Легенда о Коловрате (Джаник Файзиев, Иван Шурховецкий) [2017, Россия, История, боевик, фэнтези, WEBRip 1080p] Galfimbul 46439557804.33 GB 4 0 1517472497

11:08

1-Фев-18

Российские фильмы 2016-2018 (Новинки русского кино) ·· Легенда о Коловрате (Джаник Файзиев, Иван Шурховецкий) [2017 г., история, боевик, фэнтези, WEB-DLRip] Galfimbul 774991872739 MB 2 0 1517397025

14:10

31-Янв-18

Российские фильмы 2016-2018 (Новинки русского кино) ·· Легенда о Коловрате (Джаник Файзиев, Иван Шурховецкий) [2017 г., история, боевик, фэнтези, WEB-DLRip] Galfimbul 15832883201.47 GB 6 0 1517346030

00:00

31-Янв-18

Российские фильмы до 2016 ·· Легенда о Коловрате (Джаник Файзиев, Иван Шурховецкий) [2017, Россия, история, боевик, фэнтези, WEB-DLRip] Galfimbul 15832883201.47 GB 0 0 1517329897

19:31

30-Янв-18

Российские фильмы 2016-2018 (Новинки русского кино) ·· Легенда о Коловрате (Джаник Файзиев, Иван Шурховецкий) [2017 г., история, боевик, фэнтези, WEB-DL 720p] Galfimbul 44083106654.11 GB 2 0 1517315737

15:35

30-Янв-18

Российские фильмы 2016-2018 (Новинки русского кино) ·· Легенда о Коловрате (Джаник Файзиев, Иван Шурховецкий) [2017 г., история, боевик, фэнтези, WEB-DL 1080p] Galfimbul 50269697894.68 GB 8 0 1512602368

02:19

7-Дек-17

Российские фильмы 2016-2018 (Новинки русского кино) ·· Легенда о Коловрате (Джаник Файзиев, Иван Шурховецкий) [2017 г., история, боевик, фэнтези, WEB-DLRip] Galfimbul 22052208642.05 GB 0 0 1512602366

02:19

7-Дек-17

Российские фильмы 2016-2018 (Новинки русского кино) ·· Легенда о Коловрате (Джаник Файзиев, Иван Шурховецкий) [2017 г., история, боевик, фэнтези, WEB-DLRip] Galfimbul 14682234881.37 GB 2 0 1512132391

15:46

1-Дек-17

Трейлеры и дополнительные материалы ·· Легенда о Коловрате (Иван Шурховецкий) [2017, история, боевик, фэнтези, WEBRip-720p] Трейлер Galfimbul 6557288863 MB 0 0 1499271133

19:12

5-Июл-17

Еще никто не оставлял запись к записи скачать торрент Легенда о Коловрате . Будь первым!

!Обратная связь