Communication Barriers - 454 Words | Communication Styles - 864 Words | Intercultural Communication - 335 Words

Скачать через торрент Баскетс Baskets Фильм бесплатно в хорошем качестве torrent

Скачивайте на UnionPeer.org фильмы через торрент без регистрации. Новинки кино в хорошем качестве через торрент. На UnionPeer.org можно скачать через торрент фильмы 2014 и 2015 годов. Самые новые фильмы.

Скачать торрент Баскетс Baskets бесплатно через .torrent фильм мультфильм сериал

Если у вас наблюдаются проблемы со скриншотами, переходом по ссылками, скачиванием торрентов - проблемы в блокировщике рекламы AdBlock. #хорошегоДня!


Статистика раздачи
Размер:  2.04 GB   |    Зарегистрирован:  1 день 1 час   |    .torrent скачан:  72 раза   |   
Раздают:  1  
   
Загрузка...
 
Автор Сообщение

Galfimbul

avatar Galfimbul


Баскетс | Baskets
Год выпуска: 2018
Страна: США
Жанр: комедия
Продолжительность: ~ 00:25:00
Перевод: Профессиональный (многоголосый закадровый) | Jaskier
Режиссёр: Джонатан Крисел
В ролях: Зак Галифианакис, Марта Келли, Луи Андерсон, Сабина Щубба, Эрнест Адамс, Малия Пайлс, Эллен Д. Уильямс, Джулия Грюнберг, Том Проктер, Крис МакЛафлин, Дэн Гилвзан, Роки МакДональд, Майлз Андерсон и др.
Описание: Главный герой этого сериала - Чип Баскетс. Этот человек отличается от всех других людей. Он всегда мечтал стать просто уважаемым клоуном, когда все остальные хотели быть бизнесменами и актерами. Ради своей мечты главный герой отправился во Францию, где посещал уроки профессиональных клоунов. Однако жизнь в Париже оказалась весьма непростой. Чтобы прокормить себя, Чипу приходится участвовать в местном родео. Однако заработка хватало едва ли, чтобы сводить концы с концами. Рано или поздно предстоит вернуться домой. О жизни столь необычного человека продолжится рассказ во втором сезоне сериала "Баскетс".

Качество: WEBRip 720p
Формат: MKV
Видео: 1280x720 (16:9) | X264 | ~3088 kbps | 23.976 fps
Аудио 1: AC3, 48,0 КГц, 6 ch, 384 kbps - [RUS]
Аудио 2: Е-AC3, 48,0 КГц, 6 ch, 384 kbps - [ENG]

Реклама: Присутствует звуковая (два раза в начале и конце по 10 сек.)
Ссылка на предыдущие и альтернативные раздачи
Переведено и озвучено: студией Jaskier
Общее
Уникальный идентификатор                 : 14910264281334560469857284993068899949 (0xB379CC93FB9D9C70B76530219591E6D)
Полное имя                               : F:\Jaskier\Baskets Season 3 (WEBRip l 720p l Jaskier)\Baskets.S03E01.WEBRip.720p.Jaskier.mkv
Формат                                   : Matroska
Версия формата                           : Version 4 / Version 2
Размер файла                             : 691 Мбайт
Продолжительность                        : 23 м. 28 с.
Режим общего битрейта                    : Переменный
Общий поток                              : 4115 Кбит/сек
Дата кодирования                         : UTC 2018-02-05 20:05:43
Программа кодирования                    : mkvmerge v19.0.0 ('Brave Captain') 64-bit
Библиотека кодирования                   : libebml v1.3.5 + libmatroska v1.4.8

Видео
Идентификатор                            : 1
Формат                                   : AVC
Формат/Информация                        : Advanced Video Codec
Профиль формата                          : [email protected]
Настройки формата                        : CABAC / 5 Ref Frames
Параметр CABAC формата                   : Да
Параметр RefFrames формата               : 5 кадров
Идентификатор кодека                     : V_MPEG4/ISO/AVC
Продолжительность                        : 23 м. 28 с.
Вид битрейта                             : Переменный
Битрейт                                  : 3088 Кбит/сек
Максимальный битрейт                     : 4500 Кбит/сек
Ширина                                   : 1280 пикселей
Высота                                   : 720 пикселей
Соотношение сторон                       : 16:9
Режим частоты кадров                     : Постоянный
Частота кадров                           : 23,976 (24000/1001) кадра/сек
Цветовое пространство                    : YUV
Субдискретизация насыщенности            : 4:2:0
Битовая глубина                          : 8 бит
Тип развёртки                            : Прогрессивная
Бит/(Пиксели*Кадры)                      : 0.140
Размер потока                            : 519 Мбайт (75%)
Default                                  : Да
Forced                                   : Нет
Цветовой диапазон                        : Limited
Основные цвета                           : BT.709
Характеристики трансфера                 : BT.709
Коэффициенты матрицы                     : BT.709

Аудио #1
Идентификатор                            : 2
Формат                                   : AC-3
Формат/Информация                        : Audio Coding 3
Идентификатор кодека                     : A_AC3
Продолжительность                        : 23 м. 28 с.
Вид битрейта                             : Постоянный
Битрейт                                  : 384 Кбит/сек
Каналы                                   : 6 каналов
Расположение каналов                     : Front: L C R, Side: L R, LFE
Частота                                  : 48,0 КГц
Частота кадров                           : 31,250 кадров/сек (1536 SPF)
Битовая глубина                          : 16 бит
Метод сжатия                             : С потерями
Размер потока                            : 64,5 Мбайт (9%)
Заголовок                                : Jaskier
Язык                                     : Russian
ServiceKind/String                       : Complete Main
Default                                  : Да
Forced                                   : Нет

Аудио #2
Идентификатор                            : 3
Формат                                   : E-AC-3
Формат/Информация                        : Enhanced Audio Coding 3
Идентификатор кодека                     : A_EAC3
Продолжительность                        : 23 м. 28 с.
Вид битрейта                             : Постоянный
Битрейт                                  : 640 Кбит/сек
Каналы                                   : 6 каналов
Расположение каналов                     : Front: L C R, Side: L R, LFE
Частота                                  : 48,0 КГц
Частота кадров                           : 187,500 кадров/сек (256 SPF)
Метод сжатия                             : С потерями
Размер потока                            : 107 Мбайт (16%)
Язык                                     : English
ServiceKind/String                       : Complete Main
Default                                  : Нет
Forced                                   : Нет

Текст
Идентификатор                            : 4
Формат                                   : UTF-8
Идентификатор кодека                     : S_TEXT/UTF8
Идентификатор кодека/Информация          : UTF-8 Plain Text
Продолжительность                        : 23 м. 21 с.
Битрейт                                  : 90 бит/сек
ElementCount                             : 525
Размер потока                            : 15,5 Кбайт (0%)
Язык                                     : English
Default                                  : Нет
Forced                                   : Нет
Когда раздача ведётся путём добавления новых серий, при каждом добавлении создётся новый торрент. Чтобы начать докачку новой серии, пользователям необходимо сделать следующее:
(1) остановить скачивание,
(2) удалить старый торрент у себя из клиента (старые серии удалять не надо),
(3) скачать новый торрент и запустить его у себя в клиенте вместо старого, при этом указать клиенту путь в старую папку, куда и должно происходить скачивание новых серий.
Ваш клиент при этом должен произвести хеширование (проверку) старой папки (если не производит сам - помогите ему сделать это), и будет докачивать только те серии, которых у вас ещё нет. Старые серии при этом не удаляются, а продолжают раздаваться!
Eсли вы уже удалили старые серии, то предотвратить повторную закачку старых серий можно, отжав галочку в соответсвующих местах при запуске нового торрента. По возможности, желательно не удалять старые серии как можно дольше, чтобы релизёр не столько продолжал раздавать старые серии, а смог сконцентрироваться на новых.



Трекер:  [ 18-Фев-2018 21:26 ]

  

Скачать .torrent

Размер .torrent файла 11 KB


Размер: 2.04 GB
Хэш (hash) релиза: 141e79ae195d79e95c9da5aca88a29e78605acc2
Подписка на обновления:

bot

Раздача обновлена!
Перекачайте торрент-файл.

bot

Раздача обновлена!
Перекачайте торрент-файл.

Хотите добавить комментарий к записи скачать торрент Баскетс Baskets

!Обратная связь