Ivaylo Geraskov
Dimo Alexiev

Скачать через торрент Судьба: Апокриф Fate бесплатно Аниме Все серии на русском torrent

Если у вас наблюдаются проблемы со скриншотами, переходом по ссылками, скачиванием торрентов - проблемы в блокировщике рекламы AdBlock. #хорошегоДня!


Статистика раздачи
Размер:  8.06 GB   |    Зарегистрирован:  18 дней   |    .torrent скачан:  32 раза   |   
Раздают:  1  
   
Загрузка...
 
Автор Сообщение

Galfimbul

avatar Galfimbul


Судьба: Апокриф / Fate/Apocrypha
Страна: Япония
Год выпуска: 2017
Жанр: приключения, фэнтези, драма
Тип: TV
Продолжительность: 12 эп. по ~24 мин
Режиссёр: Асай Ёсиюки
Автор оригинала: Хигасидэ Юйтиро
Студия: A-1 Pictures Inc.
Озвучка:
Двухголосная (муж./жен.) JAM & Trina_D (AniDUB)
Субтитры:
русские (внешние) ASS полные
от LonesomeDreams, Cheelkar, ShiYoru [AniPlay]
Описание: События этого произведения происходят в мире, параллельном мирам аниме "Судьба: Ночь схватки” и "Судьба: Начало”. Вам придётся представить, что события этих аниме так никогда и не произошли. В Третьей войне Святого Грааля дом Айнцберн вызывает Правителя вместо Мстителя. Святой Грааль из города Фуюки попадает в Румынию, чему напрямую способствует семья Иггдмилления, которая и похищает Святой Грааль. Они решают не скрывать сей факт и открыто заявляют, что именно они теперь владельцы Святого Грааля.
Но разве кто-то станет просто так мириться с этим? Если Святой Грааль не у нас, значит его нужно отобрать! Таким образом, город под названием Трифас всколыхнула очередная война. На этот раз противостоят друг другу две фракции: Красная и Чёрная, в каждой из которых по семь Слуг. В Чёрной Фракции состоит собственно семья Иггдмилления, защищающая своё приобретение. Красная Фракция собралась из посланников Ассоциации Магов, они хотят освободить Грааль. Но и сам Святой Грааль решил не оставаться в стороне и призвал собственного Слугу. Чем же закончится очередная заварушка?
Информационные ссылки: AniDB | MyAnimeList | World Art
Озвучку предоставил DS29028888
Cубтитры из релиза antiBILLotic'a
Качество: BDRip
Релиз/Автор рипа: Beatrice-Raws
Совместимость с бытовыми плеерами: Нет
Наличие линковки: Нет
Тип видео: без хардсаба
Формат: MKV
Видео: x264, 1280x720, (16/9), ~3600бит/с, 23.976fps, 10 bit
Аудио #1 (внешняя) русская - AC3, 2 ch, 192кбит/с, 48000Hz
Аудио #2 (в контейнере) японская - Vorbis, 2 ch, 256кбит/с, 48000Hz
* Чтобы смотреть с озвучкой, необходимо из папки [AniDUB] переписать файлы в папку, где находятся видеофайлы. Далее, следует запустить плеер и переключиться на mka-дорожку. Подробное описание здесь
* Чтобы смотреть 10-битное видео (10bit), необходимо, исходя из ваших предпочтений используемого проигрывателя, воспользоваться
этой инструкцией.
* Чтобы смотреть с субтитрами, необходимо из папки [AniPlay] переписать файлы в папку, где находятся видеофайлы. В большинстве плееров, одноимённые субтитры подключатся автоматически.

01. Великая война Святого Грааля
02. Дева в пути
03. Начало
04. Цена жизни, искупление смерти
05. Воля небес
06. Рыцарь восстания
07. В поисках свободы
08. Начало войны
09. Сотни языков пламени и сотни цветов
10. Цветок, лишённый жизни
11. Вечное сияние
12. Триумфальное возвращение святого
13. Последний мастер
14. Мольба о спасении
15. Пути расходятся
16. Джек Потрошитель
17. Träumerei
18. Из ада
19. Рассвет последней битвы
20. Парящие в небе
21. Стрела Антареса
22. Воссоединение и прощание
23. За чертой
24. Война Святого Грааля
25. Апокриф

...5506965
...5424041
- BDRip


Общее
Уникальный идентификатор : 181691586938983661337040376431908752836 (0x88B086DBE6503000BE3134B195FC0DC4)
Полное имя : D:\Торенты №2\Fate Apocrypha [BDRip 720p]\[Beatrice-Raws] Fate Apocrypha 04 [BDRip 1280x720 x264 Vorbis].mkv
Формат : Matroska
Версия формата : Version 4 / Version 2
Размер файла : 665 Мбайт
Продолжительность : 23 м.
Режим общего битрейта : Переменный
Общий поток : 3912 Кбит/сек
Дата кодирования : UTC 2018-02-01 23:11:13
Программа кодирования : mkvmerge v17.0.0 ('Be Ur Friend') 64-bit
Библиотека кодирования : libebml v1.3.5 + libmatroska v1.4.8

Видео
Идентификатор : 1
Формат : AVC
Формат/Информация : Advanced Video Codec
Профиль формата : High [email protected]
Параметр CABAC формата : Да
Параметр ReFrames формата : 6 кадров
Идентификатор кодека : V_MPEG4/ISO/AVC
Продолжительность : 23 м.
Битрейт : 3642 Кбит/сек
Ширина : 1280 пикселей
Высота : 720 пикселей
Соотношение сторон : 16:9
Режим частоты кадров : Постоянный
Частота кадров : 23,976 (24000/1001) кадра/сек
Цветовое пространство : YUV
Субдискретизация насыщенности : 4:2:0
Битовая глубина : 10 бит
Тип развёртки : Прогрессивная
Бит/(Пиксели*Кадры) : 0.165
Размер потока : 619 Мбайт (93%)
Заголовок : BDrip by Jensen
Библиотека кодирования : x264 core 152 r2851 ba24899 (DJATOM's build)
Настройки программы : cabac=1 / ref=6 / deblock=1:1:-1 / analyse=0x3:0x113 / me=umh / subme=9 / psy=1 / psy_rd=1.00:0.00 / mixed_ref=1 / me_range=32 / chroma_me=1 / trellis=2 / 8x8dct=1 / cqm=0 / deadzone=21,11 / fast_pskip=1 / chroma_qp_offset=-2 / threads=22 / lookahead_threads=3 / sliced_threads=0 / nr=0 / decimate=1 / interlaced=0 / bluray_compat=0 / constrained_intra=0 / bframes=9 / b_pyramid=2 / b_adapt=2 / b_bias=0 / direct=1 / weightb=1 / open_gop=0 / weightp=2 / keyint=240 / keyint_min=23 / scenecut=40 / intra_refresh=0 / rc=crf / mbtree=0 / crf=14.4000 / qcomp=0.72 / qpmin=0 / qpmax=81 / qpstep=4 / ip_ratio=1.40 / pb_ratio=1.30 / aq=1:0.85
Язык : Japanese
Default : Да
Forced : Нет
Цветовой диапазон : Limited
Основные цвета : BT.709
Характеристики трансфера : BT.709
Коэффициенты матрицы : BT.709

Аудио
Идентификатор : 2
Формат : Vorbis
Параметр Floor формата : 1
Идентификатор кодека : A_VORBIS
Продолжительность : 23 м.
Вид битрейта : Переменный
Битрейт : 256 Кбит/сек
Каналы : 2 канала
Частота : 48,0 КГц
Частота кадров : 133,814 кадра/сек (359 spf)
Метод сжатия : С потерями
Размер потока : 45,3 Мбайт (7%)
Библиотека кодирования : aoTuV 20110424 (UTC 2011-04-24)
Язык : Japanese
Default : Да
Forced : Нет

Меню
00:00:00.000 : en:Avant
00:01:39.015 : en:OP
00:03:13.985 : en:Part A
00:07:26.446 : en:Part B
00:09:20.018 : en:Part C
00:12:55.274 : en:Part D
00:15:15.831 : en:Part E
00:18:26.230 : en:Part F
00:22:16.001 : en:ED



Трекер:  [ 05-Фев-2018 19:30 ]

  

Скачать .torrent

Размер .torrent файла 24 KB


Размер: 8.06 GB
Хэш (hash) релиза: 1b0ed069c2dacfe7a5a9990400aec662c35186b0
Подписка на обновления:

Еще никто не оставлял запись к записи скачать торрент Судьба: Апокриф Fate . Будь первым!

!Обратная связь