Channel Zero
Chicago Fire

Скачать через торрент В джунглях всё было хорошо, пока не пришла Гуу: Финал Jungle Wa Itsumo Hare Nochi Guu Final бесплатно Аниме Все серии на русском torrent

Если у вас наблюдаются проблемы со скриншотами, переходом по ссылками, скачиванием торрентов - проблемы в блокировщике рекламы AdBlock. #хорошегоДня!


Статистика раздачи
Размер:  3.93 GB   |    Зарегистрирован:  19 дней   |    .torrent скачан:  16 раз   |   
Раздают:  1  
   
Загрузка...
 
Автор Сообщение

Galfimbul

avatar Galfimbul


В джунглях всё было хорошо, пока не пришла Гуу: Финал / Jungle Wa Itsumo Hare Nochi Guu Final
Страна: Япония
Год выпуска: 2003-2004
Жанр: комедия, приключения, повседневность
Тип: OVA
Продолжительность: 7 эп. по ~26 мин.
Режиссёр: Мидзусима Цутому
Автор оригинала: Киндайти Рэндзиро
Снято по манге: Jungle Wa Itsumo Hale Nochi Guu
Студия: Shinei Animation
Озвучка: Сэмпл
Одноголосная (муж.) rj24
Субтитры: есть
русские (внешние) полные (srt)
от Robin
Описание: В джунглях всё было хорошо, пока – правильно! – пока не появилась Гуу, розововолосая и очень, очень странная. Иногда это милая девочка, чаще всего – хмурая бука с сердитым взглядом. Вроде бы она сирота, и поэтому Веда приютила её. Но Хале узнаёт, что Гуу – необыкновенная и, вообще, не совсем девочка и даже не человек. Но проблема не в том, что Гуу обладает особыми способностями и тащит всё в рот. Гуу – весьма язвительная личность, склонная вмешиваться в жизнь окружающих. И больше всех достаётся Хале...
© Расселл Д. Джонс, World Art
Озвучку предоставила CAOso
Качество: DVDRip JP R2J
Релиз/Автор рипа: spx
Совместимость с бытовыми плеерами: Нет
Наличие линковки: Нет
Тип видео: без хардсаба
Формат: MKV
Видео: x264, 720х540 / (2, 6 эп.) 704х540, (4/3), ~2200кбит/с, 23.976fps, 10 bit
Аудио #1 (внешняя) русская - AAC, 2 ch, ~150кбит/с, 44100Hz
Аудио #2 (в контейнере) японская - AC3, 2 ch, 448кбит/с, 48000Hz
* Чтобы смотреть с озвучкой, необходимо из папки Rus sound переписать файлы в папку, где находятся видеофайлы. Далее, следует запустить плеер и переключиться на mka-дорожку. Подробное описание здесь
* Чтобы смотреть 10-битное видео (10bit), необходимо, исходя из ваших предпочтений используемого проигрывателя, воспользоваться
этой инструкцией.
* Чтобы смотреть с субтитрами, необходимо из папки Rus subs переписать файлы в папку, где находятся видеофайлы. В большинстве плееров, одноимённые субтитры подключатся автоматически.

#1 В джунглях всё было хорошо, пока не пришла Гуу - ТВ (26 эп.), адаптация манги, 2001
#2 В джунглях всё было хорошо, пока не пришла Гуу 2 - OVA (6 эп.), продолжение, 2002
#3 В джунглях всё было хорошо, пока не пришла Гуу: Финал - OVA (7 эп.), продолжение, 2003

01. Illusion01: Greetings / Illusion02: Rita
02. Illusion03: School Heaven / Illusion04: School Hell
03. Illusion 05: Friend / Illusion 06: The Drunkard Returns
04. Illusion 07: Chest Hair Revelation / Illusion 08: Ravenna
05. Illusion 09: RPG Test Version / Illusion 10: RPG Pirate Version
06. Illusion 11: There is no more Love / Illusion 12: My Father
07. Illusion 13-14: Gunpowder has a Rouge Lipstick Fragrance (Part One & Two)

...530407 - лучше качество видео
<div class="sp-wrap">
<div class="sp-head folded">Сравнения</div>
<div class="sp-body">Тут

В раздаче nemes
...155360 - отсутствие хардсаба</div>
</div>

Общее
Уникальный идентификатор : 229951585390262842305824947505748946156 (0xACFF107CED7177A3A4ED45F9DCE6ACEC)
Полное имя : C:\Торренты №2\Jungle wa Itsumo Hare nochi Guu FINAL [DVDRip 540p]\Hare + Guu FINAL Ep01 [720x540 10bit x264].mkv
Формат : Matroska
Версия формата : Version 4 / Version 2
Размер файла : 540 Мбайт
Продолжительность : 24 м.
Общий поток : 3095 Кбит/сек
Название фильма : Hare + Guu FINAL Ep01 [raw][720x540.10bit.x264][spx]
Дата кодирования : UTC 2017-01-19 04:48:56
Программа кодирования : mkvmerge v9.5.0 ('Quiet Fire') 64bit
Библиотека кодирования : libebml v1.3.4 + libmatroska v1.4.5

Видео
Идентификатор : 1
Формат : AVC
Формат/Информация : Advanced Video Codec
Профиль формата : High [email protected]
Параметр CABAC формата : Да
Параметр ReFrames формата : 12 кадров
Идентификатор кодека : V_MPEG4/ISO/AVC
Продолжительность : 24 м.
Битрейт : 2645 Кбит/сек
Ширина : 720 пикселей
Высота : 540 пикселей
Соотношение сторон : 4:3
Режим частоты кадров : Постоянный
Частота кадров : 23,976 (24000/1001) кадра/сек
Цветовое пространство : YUV
Субдискретизация насыщенности : 4:2:0
Битовая глубина : 10 бит
Тип развёртки : Прогрессивная
Бит/(Пиксели*Кадры) : 0.284
Размер потока : 462 Мбайт (85%)
Библиотека кодирования : x264 core 148 r2694 3b70645
Настройки программы : cabac=1 / ref=12 / deblock=1:-1:-1 / analyse=0x3:0x113 / me=tesa / subme=11 / psy=1 / psy_rd=0.80:0.05 / mixed_ref=1 / me_range=32 / chroma_me=1 / trellis=2 / 8x8dct=1 / cqm=0 / deadzone=21,11 / fast_pskip=1 / chroma_qp_offset=-1 / threads=6 / lookahead_threads=1 / sliced_threads=0 / nr=0 / decimate=0 / interlaced=0 / bluray_compat=0 / constrained_intra=0 / bframes=3 / b_pyramid=2 / b_adapt=2 / b_bias=-2 / direct=3 / weightb=1 / open_gop=0 / weightp=2 / keyint=200 / keyint_min=20 / scenecut=30 / intra_refresh=0 / rc_lookahead=40 / rc=crf / mbtree=1 / crf=13.0 / qcomp=0.50 / qpmin=0 / qpmax=32 / qpstep=4 / vbv_maxrate=25000 / vbv_bufsize=25000 / crf_max=0.0 / nal_hrd=none / filler=0 / ip_ratio=1.40 / aq=1:0.80
Язык : Japanese
Default : Да
Forced : Нет

Аудио
Идентификатор : 2
Формат : AC-3
Формат/Информация : Audio Coding 3
Расширение режима : CM (complete main)
Параметр Endianness формата : Big
Идентификатор кодека : A_AC3
Продолжительность : 24 м.
Вид битрейта : Постоянный
Битрейт : 448 Кбит/сек
Каналы : 2 канала
Расположение каналов : Front: L R
Частота : 48,0 КГц
Частота кадров : 31,250 кадров/сек (1536 spf)
Метод сжатия : С потерями
Размер потока : 78,2 Мбайт (14%)
Язык : Japanese
Default : Да
Forced : Нет



Трекер:  [ 05-Фев-2018 15:01 ]

  

Скачать .torrent

Размер .torrent файла 22 KB


Размер: 3.93 GB
Хэш (hash) релиза: cfd4b8c2756a2bf398c75acd77f56b8a8d524fb0
Подписка на обновления:

Еще никто не оставлял запись к записи скачать торрент В джунглях всё было хорошо, пока не пришла Гуу: Финал Jungle Wa Itsumo Hare Nochi Guu Final . Будь первым!

!Обратная связь