Lone Survivor (2013)[BDRip - Original Auds [Tamil + Telugu] - x264 - 450MB - ESubs] TEAM TR | bradbrad | Скачать

Скачать через торрент [ATV3] Безбашенные Renegades бесплатно русская версия torrent активатор

Статистика раздачи
Размер:  4.27 GB   |    Зарегистрирован:  6 месяцев   |    .torrent скачан:  25 раз   |   
Раздают:  1  
   
загрузка...
 
Автор Сообщение

Galfimbul

avatar Galfimbul


Безбашенные / Renegades
«5 морских котиков. $ 300 миллионов золотом. 1 невыполнимая миссия»

5.544 / 10 5.60 / 10
Год выпуска: 2017
Страна: Франция, Германия
Жанр: Боевик, триллер
Продолжительность: 01:45:36

Перевод: Дублированный (iTunes)
Оригинальная аудиодорожка: Есть
Cубтитры: Английские форсированные
Режиссёр: Стивен Куэйл
Сценарий: Ричард Уэнк, Люк Бессон
Продюсер: Рафаэль Бенолье, Люк Бессон, Фабрис Дельвиль
Оператор: Брайан Пирсон
Композитор: Эрик Серра
Художник: Юг Тиссандье, Михаэль Фисснайдер, Иво Хусняк
Монтаж: Флоран Вассо
В ролях: Дж.К. Симмонс, Чарли Бьюли, Салливан Степлтон, Юэн Бремнер, Сильвия Хукс, Джошуа Генри, Марк Ходапп, Марко Парадзик, Диармед Мёрта, Димитрий Леонидас

Бюджет: €66 190 000
Сборы в России: $185 345

Мировая премьера: 1 сентября 2017
Премьера (РФ): 5 октября 2017, «MEGOGO Distribution»

Цифровой релиз: 05 февраля 2018, «Megogo Distribution»

Описание: На дне озера охваченной войной Боснии команда спецназа ВМС США «Морские котики» находит клад — золотые слитки стоимостью более $300 млн. Миссия команды, нарушившей присягу и рискующей жизнью — поднять золото со дна озера. Для других она была бы невыполнимой, но только не для этих безбашенных парней: у них есть 10 часов, чтобы завершить задуманное.
Качество исходника: WEB-DL 1080p (BlueBird)
Качество: WEB-DL
Тип: HD (1080p)
Контейнер: M4V
Видео: H.264, 1916x800, 2.40:1, 4 544 Kbps, 23.976 fps

Аудио 1: Русский/Дублированный (iTunes), AAC / 2.0 / 160 Kbps / 48.0 KHz
Аудио 2: Английский/Оригинальная дорожка , AAC / 2.0 / 160 Kbps / 48.0 KHz
Аудио 3: Украинский/Дублированный (Cтудия ААА-sound), AAC / 2.0 / 160 Kbps / 48.0 KHz
Аудио 4: Русский/Дублированный (iTunes), AC-3 / 5.1 / 384 Kbps / 48.0 KHz
Аудио 5: Английский/Оригинальная дорожка , AC-3 / 5.1 / 384 Kbps / 48.0 KHz

Субтитры: Английские форсированные
Sort Name: Безбашенные
XID: Apple:vendor_id:2017-893984
contentID: 1327597704
Screenwriters: Ричард Уэнк, Люк Бессон
Producers: Рафаэль Бенолье, Люк Бессон, Фабрис Дельвиль
Director: Стивен Куэйл
Cast: Дж.К. Симмонс, Чарли Бьюли, Салливан Степлтон, Юэн Бремнер, Сильвия Хукс, Джошуа Генри, Марк Ходапп, Марко Парадзик, Диармед Мёрта, Димитрий Леонидас
Studio: Belga Productions, CB Films, Canal +
Rating: 4
Long Description: На дне озера охваченной войной Боснии команда спецназа ВМС США «Морские котики» находит клад — золотые слитки стоимостью более 0 млн. Миссия команды, нарушившей присягу и рискующей жизнью — поднять золото со дна озера. Для других она была бы невыполнимой, но только не для этих безбашенных парней: у них есть 10 часов, чтобы завершить задуманное.
Description: На дне озера охваченной войной Боснии команда спецназа ВМС США «Морские котики» находит клад — золотые слитки стоимостью более 0 млн.
Release Date: 2017-10-05T07:00:00Z
Genre: Боевики и приключения
Artist: Steven Quale
Name: Безбашенные
General
Complete name : /Users/imac/HandBrake/Renegades.WEB-DL.1080p.m4v
Format : MPEG-4
Codec ID : M4V
File size : 4.27 GiB
Duration : 1h 45mn
Overall bit rate mode : Variable
Overall bit rate : 5 788 Kbps
Movie name : Безбашенные
Performer : Steven Quale
Director : Стивен Куэйл
Actor : Дж.К. Симмонс / Чарли Бьюли / Салливан Степлтон / Юэн Бремнер / Сильвия Хукс / Джошуа Генри / Марк Ходапп / Марко Парадзик / Диармед Мёрта / Димитрий Леонидас
Screenplay by : Ричард Уэнк / Люк Бессон
Producer : Рафаэль Бенолье / Люк Бессон / Фабрис Дельвиль
Production studio : Belga Productions, CB Films, Canal +
Genre : Боевики и приключения
ContentType : Short Film
Description : На дне озера охваченной войной Боснии команда спецназа ВМС США «Морские котики» находит клад — золотые слитки стоимостью более $300 млн.
Recorded date : UTC 2017-10-05 07:00:00
Encoded date : UTC 2018-02-05 10:01:39
Tagged date : UTC 2018-02-05 10:04:21
Cover : Yes
Rating : None
Title/Sort : Безбашенные
LongDescription : На дне озера охваченной войной Боснии команда спецназа ВМС США «Морские котики» находит клад — золотые слитки стоимостью более $300 млн. Миссия команды, нарушившей присягу и рискующей жизнью — поднять золото со дна озера. Для других она была бы невыполнимой, но только не для этих безбашенных парней: у них есть 10 часов, чтобы завершить задуманное.
AppleStoreCatalogID : 1327597704
Vendor : Apple:vendor_id:2017-893984
ContentRating : mpaa|PG-13|300|

Video #1
ID : 1
Format : AVC
Format/Info : Advanced Video Codec
Format profile : [email protected]
Format settings, CABAC : Yes
Format settings, ReFrames : 5 frames
Codec ID : avc1
Codec ID/Info : Advanced Video Coding
Duration : 1h 45mn
Bit rate : 4 544 Kbps
Width : 1 916 pixels
Height : 800 pixels
Display aspect ratio : 2.40:1
Frame rate mode : Variable
Frame rate : 23.976 fps
Minimum frame rate : 23.810 fps
Maximum frame rate : 24.390 fps
Color space : YUV
Chroma subsampling : 4:2:0
Bit depth : 8 bits
Scan type : Progressive
Bits/(Pixel*Frame) : 0.124
Stream size : 3.35 GiB (79%)
Title : Main Program
Language : English
Encoded date : UTC 2018-02-05 10:01:39
Tagged date : UTC 2018-02-05 10:03:19
Color range : Limited
Color primaries : BT.709
Transfer characteristics : BT.709
Matrix coefficients : BT.709

Video #2
ID : 9
Format : JPEG
Codec ID : jpeg
Duration : 1h 45mn
Bit rate mode : Variable
Bit rate : 202 bps
Width : 640 pixels
Height : 267 pixels
Display aspect ratio : 2.40:1
Frame rate mode : Variable
Frame rate : 0.001 fps
Minimum frame rate : 0.000 fps
Maximum frame rate : 0.002 fps
Color space : YUV
Chroma subsampling : 4:2:0
Bit depth : 8 bits
Compression mode : Lossy
Bits/(Pixel*Frame) : 1.182
Stream size : 98.7 KiB (0%)
Title : Chapter Images
Language : English
Encoded date : UTC 2018-02-05 10:03:20
Tagged date : UTC 2018-02-05 10:03:20

Audio #1
ID : 2
Format : AAC
Format/Info : Advanced Audio Codec
Format profile : LC
Codec ID : 40
Duration : 1h 45mn
Source duration : 1h 45mn
Bit rate mode : Variable
Bit rate : 157 Kbps
Maximum bit rate : 217 Kbps
Channel(s) : 2 channels
Channel positions : Front: L R
Sampling rate : 48.0 KHz
Compression mode : Lossy
Stream size : 119 MiB (3%)
Source stream size : 119 MiB (3%)
Title : Russian Stereo
Language : Russian
Encoded date : UTC 2018-02-05 10:01:39
Tagged date : UTC 2018-02-05 10:01:45

Audio #2
ID : 3
Format : AAC
Format/Info : Advanced Audio Codec
Format profile : LC
Codec ID : 40
Duration : 1h 45mn
Source duration : 1h 45mn
Bit rate mode : Variable
Bit rate : 158 Kbps
Maximum bit rate : 225 Kbps
Channel(s) : 2 channels
Channel positions : Front: L R
Sampling rate : 48.0 KHz
Compression mode : Lossy
Stream size : 119 MiB (3%)
Source stream size : 119 MiB (3%)
Title : English Stereo
Language : English
Encoded date : UTC 2018-02-05 10:01:39
Tagged date : UTC 2018-02-05 10:01:45

Audio #3
ID : 4
Format : AAC
Format/Info : Advanced Audio Codec
Format profile : LC
Codec ID : 40
Duration : 1h 45mn
Source duration : 1h 45mn
Bit rate mode : Variable
Bit rate : 151 Kbps
Maximum bit rate : 222 Kbps
Channel(s) : 2 channels
Channel positions : Front: L R
Sampling rate : 48.0 KHz
Compression mode : Lossy
Stream size : 114 MiB (3%)
Source stream size : 114 MiB (3%)
Title : Ukrainian Stereo
Language : Ukrainian
Encoded date : UTC 2018-02-05 10:01:39
Tagged date : UTC 2018-02-05 10:01:45

Audio #4
ID : 5
Format : AC-3
Format/Info : Audio Coding 3
Mode extension : CM (complete main)
Format settings, Endianness : Big
Codec ID : ac-3
Duration : 1h 45mn
Source duration : 1h 45mn
Bit rate mode : Constant
Bit rate : 384 Kbps
Channel(s) : 6 channels
Channel positions : Front: L C R, Side: L R, LFE
Sampling rate : 48.0 KHz
Bit depth : 16 bits
Compression mode : Lossy
Stream size : 290 MiB (7%)
Source stream size : 290 MiB (7%)
Title : Russian DD 5.1
Language : Russian
Encoded date : UTC 2018-02-05 10:01:39
Tagged date : UTC 2018-02-05 10:03:19

Audio #5
ID : 6
Format : AC-3
Format/Info : Audio Coding 3
Mode extension : CM (complete main)
Format settings, Endianness : Big
Codec ID : ac-3
Duration : 1h 45mn
Source duration : 1h 45mn
Bit rate mode : Constant
Bit rate : 384 Kbps
Channel(s) : 6 channels
Channel positions : Front: L C R, Side: L R, LFE
Sampling rate : 48.0 KHz
Bit depth : 16 bits
Compression mode : Lossy
Stream size : 290 MiB (7%)
Source stream size : 290 MiB (7%)
Title : English DD 5.1
Language : English
Encoded date : UTC 2018-02-05 10:01:39
Tagged date : UTC 2018-02-05 10:03:19

Text
ID : 7
Format : Timed Text
Muxing mode : sbtl
Codec ID : tx3g
Duration : 1h 28mn
Bit rate mode : Variable
Bit rate : 3 bps
Stream size : 1.96 KiB (0%)
Title : English forced
Language : English
Encoded date : UTC 2018-02-05 10:01:39
Tagged date : UTC 2018-02-05 10:03:19

Menu #1
00:00:00.000 : Chapter 1
00:34:10.091 : Chapter 2
01:09:58.906 : Chapter 3
01:36:17.359 : Chapter 4

Menu #2
ID : 8
Codec ID : text
Duration : 1h 45mn
Language : English
Encoded date : UTC 2018-02-05 10:03:19
Tagged date : UTC 2018-02-05 10:03:19
Bit rate mode : CBR
00:00:00.000 : Chapter 1
00:34:10.091 : Chapter 2
01:09:58.906 : Chapter 3
01:36:17.359 : Chapter 4

Релиз подготовлен для просмотра на Apple TV, iPad, iPhone, iPod Touch.
Для просмотра данного релиза на компьютере с ОС Windows рекомендуется использовать VLC media player

Трекер:  [ 05-Фев-2018 13:42 ]

  

Скачать .torrent

Размер .torrent файла 43 KB


Размер: 4.27 GB
Хэш (hash) релиза: 7125e5164abc365c559e6edc743f2e91c9553fe3

Еще никто не оставлял запись к записи скачать торрент [ATV3] Безбашенные Renegades . Будь первым!

!Обратная связь