Crystal Marie Denha | Ashampoo Gadge It v1.0.0. | A Scholar Dream of Woman

Скачать через торрент Лиричная Волшебница Наноха: Асы Mahou Shoujo Lyrical Nanoha As бесплатно Аниме Все серии на русском torrent

Статистика раздачи
Размер:  96.73 GB   |    Зарегистрирован:  6 месяцев   |    .torrent скачан:  25 раз   |   
Раздают:  1  
   
загрузка...
 
Автор Сообщение

Galfimbul

avatar Galfimbul


Лиричная Волшебница Наноха: Асы / Mahou Shoujo Lyrical Nanoha A's

Год выпуска: 2005
Страна: Япония
Жанр: приключения, махо-сёдзё
Тип: TV
Продолжительность: 13 эп. по 25 мин.
Озвучка:

Одноголосая (жен) от Kedra

Русские субтитры: есть (отдельным файлом, формат .ass)
Перевод:

Hollow, Вилли

Хардсаб: Нет
Режиссер: Кусакава Кэйдзё
Студия: Seven Arcs

Описание:
Прошло полгода после событий первого сезона, и жизнь героев вошла в привычное русло. Наноха не бросает тренировок и ждет в гости любимую подругу Фейт, с которой сняли большинство обвинений, а за оставшиеся дали условный срок с обязательной отработкой в Бюро Пространства-Времени. И надо же такому случиться, что в этом же тихом городке Уминари в полночь дня рождения девочки-сироты Хаятэ Ягами с полки слетает очень старая Книга…

Древний фатум или свободный выбор, борьба с причинами или гашение следствий, справедливость силы или сила справедливости, «меньшее зло» или «слезинка ребенка», единичность или множественность истины, оправданность «лжи во спасение» – все эти непростые вопросы ни на минуту не отпускают зрителя во втором сезоне Нанохи, ни под шелест неторопливых бесед, ни под грохот магических битв. Через боль и кровь (свою и чужую), через мучительный раскол в душе герои приходят к простому выводу – чтобы решить любую задачу, надо говорить друг с другом, действовать и бороться вместе. А при нежелании вести конструктивный диалог у рыжей лиричной волшебницы есть безотказное средство – Звездный Молот!

© Hollow, World Art

Качество: Blu-Ray Remux
Формат: MKV
Видео кодек: AVC
Аудио кодек: FLAC
Видео: 1920x1080 (16:9) 23,976 fps ~38,4 Mbps 8bit
Аудио:
Jap FLAC, 48000Hz, ~752 Kbps, 2ch
RUS (ext) AAC, 48000Hz, ~192 Kbps, 2ch

Чаптеры присутствуют.
01. Нежданное начало.
02. Вновь с тобой в огонь сражения.
03. Вперед и вместе!
04. С новыми силами — в бой!
05. Желание скромное мое (часть I)
06. Желание скромное мое (часть II)
07. Осколки прошлого и настоящего
08. Грустное решение, отважный выбор
09. Канун Рождества
10. Судьба
11. Рождественские дары
12. Конец ночи, конец пути
13. Всегда готовы!
Общее
Уникальный идентификатор : 100232836205423867173423866295869603518 (0x4B68245E6E19CDF50C0DBE6363057EBE)
Полное имя : Z:\Anime Release - working\Nanoha2\[anti-raws]Mahou Shoujo Lyrical Nanoha A's ep.01[BDRemux].mkv
Формат : Matroska
Версия формата : Version 4 / Version 2
Размер файла : 7,17 Гбайт
Продолжительность : 25 м. 38 с.
Режим общего битрейта : Переменный
Общий поток : 40,0 Мбит/сек
Дата кодирования : UTC 2018-01-30 21:55:49
Программа кодирования : mkvmerge v20.0.0 ('I Am The Sun') 64-bit
Библиотека кодирования : libebml v1.3.5 + libmatroska v1.4.8

Видео
Идентификатор : 2
Формат : AVC
Формат/Информация : Advanced Video Codec
Профиль формата : [email protected]
Настройки формата : CABAC / 4 Ref Frames
Параметр CABAC формата : Да
Параметр RefFrames формата : 4 кадра
Идентификатор кодека : V_MPEG4/ISO/AVC
Продолжительность : 25 м. 38 с.
Вид битрейта : Переменный
Битрейт : 39,3 Мбит/сек
Максимальный битрейт : 40,0 Мбит/сек
Ширина : 1920 пикселей
Высота : 1080 пикселей
Соотношение сторон : 16:9
Режим частоты кадров : Постоянный
Частота кадров : 23,976 (24000/1001) кадра/сек
Цветовое пространство : YUV
Субдискретизация насыщенности : 4:2:0
Битовая глубина : 8 бит
Тип развёртки : Прогрессивная
Бит/(Пиксели*Кадры) : 0.790
Размер потока : 7,03 Гбайт (98%)
Default : Нет
Forced : Нет
Цветовой диапазон : Limited
Основные цвета : BT.709
Характеристики трансфера : BT.709
Коэффициенты матрицы : BT.709

Аудио
Идентификатор : 1
Формат : FLAC
Формат/Информация : Free Lossless Audio Codec
Идентификатор кодека : A_FLAC
Продолжительность : 25 м. 38 с.
Вид битрейта : Переменный
Битрейт : 752 Кбит/сек
Каналы : 2 канала
Расположение каналов : Front: L R
Частота : 48,0 КГц
Частота кадров : 11,719 кадров/сек (4096 SPF)
Битовая глубина : 16 бит
Размер потока : 138 Мбайт (2%)
Библиотека кодирования : libFLAC 1.2.1 (UTC 2007-09-17)
Язык : Japanese
Default : Да
Forced : Нет

Меню
00:00:00.000 : en:00:00:00.000
00:01:47.983 : en:00:01:47.983
00:12:10.980 : en:00:12:10.980
00:23:35.998 : en:00:23:35.998
00:25:06.922 : en:00:25:06.922


Трекер:  [ 04-Фев-2018 21:30 ]

  

Скачать .torrent

Размер .torrent файла 125 KB


Размер: 96.73 GB
Хэш (hash) релиза: 026444d1d47c705f6c5ee1db185a90ea8199ea56
Подписка на обновления:

Еще никто не оставлял запись к записи скачать торрент Лиричная Волшебница Наноха: Асы Mahou Shoujo Lyrical Nanoha As . Будь первым!

!Обратная связь