Suburbicon torrent

, , - AdBlock. #!


3.55 GB   |    :  18    |    .torrent :  20    |   
1  
   
...
 

Galfimbul

avatar Galfimbul


/ Suburbicon


6.556 / 10 5.40 / 10
: 2017
:
: , , ,
: 01:45:02

: (iTunes)
:
C:
:
: , ,
: , ,
:
:
: . , ,
:
: , , , , , , , , ,

: $5 775 178
: $488 007

: 2 2017
(): 16 2017, Cinema Prestige

: 23 2018, Cinema Prestige

: ! . . . . . , . , .
: BDRemux (NNMClub)
: BDRip
: HD (720p)
: M4V
: H.264, 1280x544, 2.35:1, 3 500 Kbps, 23.976 (24000/1001) fps

1: / (iTunes), AAC / 2.0 / 160 Kbps / 48.0 KHz
2: / , AAC / 2.0 / 160 Kbps / 48.0 KHz
3: / (iTunes), AC-3 / 5.1 / 384 Kbps / 48.0 KHz
4: / , AC-3 / 5.1 / 640 Kbps / 48.0 KHz

:
Sort Name: Suburbicon
XID: Apple:vendor_id:2017-262051
contentID: 1293437205
Copyright: 2017 Paramount Pictures. All Rights Reserved
Screenwriters: , ,
Producers: , ,
Director:
Cast: , , , , , , , , , , , , , ,
Studio: Paramount Pictures
Rating: 5
Long Description: ! . . . . . , - . - , .
Description: ! . . . . . , - . - , .
Release Date: 2017-09-02T08:00:00Z
Genre: Comedy
Artist: George Clooney
Name: Suburbicon
General
Complete name : /Users/imac/HandBrake/Suburbicon (720p HD).m4v
Format : MPEG-4
Codec ID : M4V (M4V /M4A /mp42/isom)
File size : 3.55 GiB
Duration : 1h 45mn
Overall bit rate mode : Variable
Overall bit rate : 4 844 Kbps
Movie name : Suburbicon
Performer : George Clooney
Director :
Actor : / / / / / / / / / / / / / /
Screenplay by : / /
Producer : / /
Production studio : Paramount Pictures
Genre : Comedy
ContentType : Short Film
Description : ! . . . . . , - . - , .
Recorded date : UTC 2017-09-02 08:00:00
Encoded date : UTC 2018-02-04 17:29:56
Tagged date : UTC 2018-02-04 17:30:39
Copyright : 2017 Paramount Pictures. All Rights Reserved
Cover : Yes
Rating : None
Title/Sort : Suburbicon
LongDescription : ! . . . . . , - . - , .
HDVideo : Yes
AppleStoreCatalogID : 1293437205
Vendor : Apple:vendor_id:2017-262051
ContentRating : mpaa|R|400|

Video #1
ID : 1
Format : AVC
Format/Info : Advanced Video Codec
Format profile : [email protected]
Format settings : 3 Ref Frames
Format settings, CABAC : No
Format settings, ReFrames : 3 frames
Codec ID : avc1
Codec ID/Info : Advanced Video Coding
Duration : 1h 45mn
Source duration : 1h 45mn
Bit rate : 3 500 Kbps
Width : 1 280 pixels
Height : 544 pixels
Display aspect ratio : 2.35:1
Frame rate mode : Variable
Frame rate : 23.976 (24000/1001) fps
Minimum frame rate : 23.974 fps
Maximum frame rate : 23.981 fps
Color space : YUV
Chroma subsampling : 4:2:0
Bit depth : 8 bits
Scan type : Progressive
Bits/(Pixel*Frame) : 0.210
Stream size : 2.57 GiB (72%)
Source stream size : 2.57 GiB (72%)
Title : Main Program
Writing library : x264 core 148 r2708 86b7198
Encoding settings : cabac=0 / ref=3 / deblock=1:-3:-3 / analyse=0x3:0x113 / me=umh / subme=9 / psy=1 / psy_rd=1.00:0.15 / mixed_ref=1 / me_range=32 / chroma_me=1 / trellis=0 / 8x8dct=1 / cqm=0 / deadzone=21,11 / fast_pskip=0 / chroma_qp_offset=-2 / threads=17 / lookahead_threads=1 / sliced_threads=0 / nr=0 / decimate=0 / interlaced=0 / bluray_compat=0 / constrained_intra=0 / bframes=3 / b_pyramid=0 / b_adapt=2 / b_bias=0 / direct=1 / weightb=0 / open_gop=0 / weightp=0 / keyint=240 / keyint_min=24 / scenecut=40 / intra_refresh=0 / rc_lookahead=40 / rc=2pass / mbtree=1 / bitrate=3500 / ratetol=1.0 / qcomp=0.65 / qpmin=0 / qpmax=69 / qpstep=4 / cplxblur=20.0 / qblur=0.5 / vbv_maxrate=9500 / vbv_bufsize=9500 / nal_hrd=none / filler=0 / ip_ratio=1.40 / aq=1:1.10
Language : English
Encoded date : UTC 2018-02-04 17:29:56
Tagged date : UTC 2018-02-04 17:30:04
Color range : Limited
Color primaries : BT.709
Transfer characteristics : BT.709
Matrix coefficients : BT.709
Menus : 7,8

Video #2
ID : 8
Format : JPEG
Codec ID : jpeg
Duration : 1h 45mn
Bit rate mode : Variable
Bit rate : 525 bps
Width : 640 pixels
Height : 272 pixels
Display aspect ratio : 2.35:1
Frame rate mode : Variable
Frame rate : 0.002 fps
Minimum frame rate : 0.002 fps
Maximum frame rate : 0.005 fps
Color space : YUV
Chroma subsampling : 4:2:0
Bit depth : 8 bits
Compression mode : Lossy
Bits/(Pixel*Frame) : 1.508
Stream size : 481 KiB (0%)
Title : Chapter Images
Language : English
Default : No
Encoded date : UTC 2018-02-04 17:30:13
Tagged date : UTC 2018-02-04 17:30:13
Menu For : 1

Audio #1
ID : 2
Format : AAC
Format/Info : Advanced Audio Codec
Format profile : LC
Codec ID : mp4a-40-2
Duration : 1h 44mn
Source duration : 1h 44mn
Bit rate mode : Variable
Bit rate : 157 Kbps
Maximum bit rate : 237 Kbps
Channel(s) : 2 channels
Channel positions : Front: L R
Sampling rate : 48.0 KHz
Frame rate : 46.875 fps (1024 SPF)
Compression mode : Lossy
Stream size : 118 MiB (3%)
Source stream size : 118 MiB (3%)
Title : Russian Stereo
Language : Russian
Default : Yes
Alternate group : 1
Encoded date : UTC 2018-02-04 17:29:56
Tagged date : UTC 2018-02-04 17:30:09
Fallback From : 4

Audio #2
ID : 3
Format : AAC
Format/Info : Advanced Audio Codec
Format profile : LC
Codec ID : mp4a-40-2
Duration : 1h 45mn
Source duration : 1h 45mn
Bit rate mode : Variable
Bit rate : 157 Kbps
Maximum bit rate : 258 Kbps
Channel(s) : 2 channels
Channel positions : Front: L R
Sampling rate : 48.0 KHz
Frame rate : 46.875 fps (1024 SPF)
Compression mode : Lossy
Stream size : 118 MiB (3%)
Source stream size : 118 MiB (3%)
Title : English Stereo
Language : English
Default : No
Alternate group : 1
Encoded date : UTC 2018-02-04 17:29:56
Tagged date : UTC 2018-02-04 17:30:09
Fallback From : 5

Audio #3
ID : 4
Format : AC-3
Format/Info : Audio Coding 3
Codec ID : ac-3
Duration : 1h 44mn
Bit rate mode : Constant
Bit rate : 384 Kbps
Channel(s) : 6 channels
Channel positions : Front: L C R, Side: L R, LFE
Sampling rate : 48.0 KHz
Frame rate : 31.250 fps (1536 SPF)
Bit depth : 16 bits
Compression mode : Lossy
Stream size : 287 MiB (8%)
Title : Russian DD 5.1
Language : Russian
Service kind : Complete Main
Default : Inherited From: 2
Alternate group : 1
Encoded date : UTC 2018-02-04 17:29:56
Tagged date : UTC 2018-02-04 17:30:09
Fallback To : 2

Audio #4
ID : 5
Format : AC-3
Format/Info : Audio Coding 3
Codec ID : ac-3
Duration : 1h 45mn
Bit rate mode : Constant
Bit rate : 640 Kbps
Channel(s) : 6 channels
Channel positions : Front: L C R, Side: L R, LFE
Sampling rate : 48.0 KHz
Frame rate : 31.250 fps (1536 SPF)
Bit depth : 16 bits
Compression mode : Lossy
Stream size : 481 MiB (13%)
Title : English DD 5.1
Language : English
Service kind : Complete Main
Default : No
Alternate group : 1
Encoded date : UTC 2018-02-04 17:29:56
Tagged date : UTC 2018-02-04 17:30:09
Fallback To : 3

Text
ID : 6
Format : Timed Text
Muxing mode : sbtl
Codec ID : tx3g
Duration : 1h 35mn
Bit rate mode : Variable
Bit rate : 64 bps
Stream size : 44.9 KiB (0%)
Title : English full
Language : English
Default : Yes
Forced : No
Alternate group : 2
Encoded date : UTC 2018-02-04 17:29:56
Tagged date : UTC 2018-02-04 17:30:07

Menu #1
00:00:00.000 : Chapter 1
00:04:50.165 : Chapter 2
00:15:11.452 : Chapter 3
00:23:09.305 : Chapter 4
00:33:08.612 : Chapter 5
00:39:36.916 : Chapter 6
00:44:29.125 : Chapter 7
00:49:19.540 : Chapter 8
00:56:36.560 : Chapter 9
01:05:06.778 : Chapter 10
01:14:14.283 : Chapter 11
01:23:46.855 : Chapter 12
01:27:54.352 : Chapter 13
01:33:47.914 : Chapter 14
01:37:15.204 : Chapter 15

Menu #2
ID : 7
Codec ID : text
Duration : 1h 45mn
Language : English
Encoded date : UTC 2018-02-04 17:30:09
Tagged date : UTC 2018-02-04 17:30:09
Menu For : 1
00:00:00.000 : Chapter 1
00:04:50.165 : Chapter 2
00:15:11.452 : Chapter 3
00:23:09.305 : Chapter 4
00:33:08.612 : Chapter 5
00:39:36.916 : Chapter 6
00:44:29.125 : Chapter 7
00:49:19.540 : Chapter 8
00:56:36.560 : Chapter 9
01:05:06.778 : Chapter 10
01:14:14.283 : Chapter 11
01:23:46.855 : Chapter 12
01:27:54.352 : Chapter 13
01:33:47.914 : Chapter 14
01:37:15.204 : Chapter 15
Bit rate mode : VBR
x264 [info]: frame I:1254 Avg QP:12.75 size:116388
x264 [info]: frame P:48623 Avg QP:15.26 size: 34470
x264 [info]: frame B:101233 Avg QP:16.49 size: 9222
x264 [info]: consecutive B-frames: 2.5% 12.7% 35.0% 49.7%
x264 [info]: mb I I16..4: 10.1% 63.8% 26.1%
x264 [info]: mb P I16..4: 1.1% 4.3% 1.4% P16..4: 41.8% 30.6% 12.9% 0.0% 0.0% skip: 7.8%
x264 [info]: mb B I16..4: 0.1% 0.5% 0.1% B16..8: 45.1% 13.8% 2.0% direct: 3.5% skip:34.9% L0:44.6% L1:49.2% BI: 6.2%
x264 [info]: 8x8 transform intra:64.6% inter:41.3%
x264 [info]: coded y,uvDC,uvAC intra: 87.2% 86.1% 74.1% inter: 24.6% 24.2% 16.9%
x264 [info]: i16 v,h,dc,p: 54% 11% 7% 27%
x264 [info]: i8 v,h,dc,ddl,ddr,vr,hd,vl,hu: 10% 8% 8% 11% 14% 14% 13% 11% 11%
x264 [info]: i4 v,h,dc,ddl,ddr,vr,hd,vl,hu: 10% 8% 3% 12% 17% 16% 14% 11% 9%
x264 [info]: i8c dc,h,v,p: 57% 15% 17% 11%
x264 [info]: ref P L0: 64.9% 20.5% 14.6%
x264 [info]: ref B L0: 72.8% 27.2%
x264 [info]: kb/s:3497.66

Apple TV, iPad, iPhone, iPod Touch.
Windows VLC media player

 ·  , , FAQ-
:  [ 04--2018 20:42 ]

  

.torrent

.torrent 36 KB


: 3.55 GB
(hash) : d346e75f04a6b320c65bb0d4c45b4270f9904d95
··
...

Suburbicon . !

!