Der lange Weg nach Alice Springs (A Town Like Alic | Linda Hart | There's… Johnny!

Скачать через торрент Ванпанчмен One Punch Man бесплатно Аниме Все серии на русском torrent

Статистика раздачи
Размер:  13.06 GB   |    Зарегистрирован:  4 месяца 17 дней   |    .torrent скачан:  43 раза   |   
Раздают:  1  
   
загрузка...
 
Автор Сообщение

Galfimbul

avatar Galfimbul


Ванпанчмен / One Punch Man


[b]Страна
: Япония
Год выпуска: 2015
Жанр: приключения, фантастика, комедия
Тип: TV
Продолжительность: 12 эп, ~25 мин. серия
Режиссер: Нацумэ Синго
Студия: Madhouse Studios

Описание: Аниме-экранизация популярной манги о том, что быть лысым в 25 лет нормально и совсем не обидно. Особенно, если бликующая на солнце макушка — плата за приобретение нечеловеческой силищи. Сайтама, тот самый паренек с голой головой, может с одного удара отправить в нокаут любого злодейского злодея, но из-за зашкаливающей степени скромности, его никто не воспринимает как тру-супергероя.

Качество: BDRip
Тип релиза: Без хардсаба
Формат видео: MKV
Релиз/Автор рипа: Beatrice-Raws
Видео: AVC, 1280x720, 6 543 kbps, 23.976
Аудио: MP2, 192 kbps, 48.0 kHz, 2 ch. Язык: Русский (в составе контейнера) ; Озвучка: многоголосая, Zone Vision Studio (2x2)
Аудио 2: Vorbis, 256 kbps, 48.0 kHz, 2 ch. Язык: Японский
01. Сильнейший мужик
02. Одинокий киборг
03. Месть ученого
04. Ниндзя наших дней
05. Совершенный учитель
06. Ужасный город
07. Великий ученик
08. Морской владыка
09. Торжество справедливости
10. Беда каких свет не видывал
11. Властитель вселенной
12. Сильнейший герой
GeneralUnique ID : 108655318597182533087109968384274025556 (0x51BE40CFC539D3D08BEAE4FB15494C54)Complete name : C:\Новая папка\One Punch Man 2x2\One Punch Man 01 2x2.mkvFormat : MatroskaFormat version : Version 4 / Version 2File size : 1.19 GiBDuration : 24 min 21 sOverall bit rate mode : VariableOverall bit rate : 6 993 kb/sEncoded date : UTC 2018-02-01 18:57:43Writing application : mkvmerge v19.0.0 ('Brave Captain') 64-bitWriting library : libebml v1.3.5 + libmatroska v1.4.8

VideoID : 1Format : AVCFormat/Info : Advanced Video CodecFormat profile : High [email protected] settings : CABAC / 9 Ref FramesFormat settings, CABAC : YesFormat settings, ReFrames : 9 framesCodec ID : V_MPEG4/ISO/AVCDuration : 24 min 21 sBit rate : 6 543 kb/sWidth : 1 280 pixelsHeight : 720 pixelsDisplay aspect ratio : 16:9Frame rate mode : ConstantFrame rate : 23.976 (24000/1001) FPSColor space : YUVChroma subsampling : 4:2:0Bit depth : 10 bitsScan type : ProgressiveBits/(Pixel*Frame) : 0.296Stream size : 1.11 GiB (94%)Title : BDRip by X-KiraWriting library : x264 core 148 r2579 73ae2d1Encoding settings : cabac=1 / ref=9 / deblock=1:-2:-2 / analyse=0x3:0x113 / me=umh / subme=9 / psy=1 / psy_rd=0.90:0.00 / mixed_ref=1 / me_range=32 / chroma_me=1 / trellis=2 / 8x8dct=1 / cqm=0 / deadzone=21,11 / fast_pskip=1 / chroma_qp_offset=-2 / threads=6 / lookahead_threads=1 / sliced_threads=0 / nr=0 / decimate=1 / interlaced=0 / bluray_compat=0 / constrained_intra=0 / bframes=11 / b_pyramid=2 / b_adapt=2 / b_bias=0 / direct=1 / weightb=1 / open_gop=0 / weightp=2 / keyint=240 / keyint_min=23 / scenecut=40 / intra_refresh=0 / rc=crf / mbtree=0 / crf=15.0 / qcomp=0.70 / qpmin=0 / qpmax=81 / qpstep=4 / ip_ratio=1.40 / pb_ratio=1.30 / aq=1:1.00Language : JapaneseDefault : YesForced : NoColor range : LimitedColor primaries : BT.709Transfer characteristics : BT.709Matrix coefficients : BT.709

Audio #1ID : 2Format : MPEG AudioFormat version : Version 1Format profile : Layer 2Codec ID : A_MPEG/L2Codec ID/Hint : MP2Duration : 24 min 20 sBit rate mode : ConstantBit rate : 192 kb/sChannel(s) : 2 channelsSampling rate : 48.0 kHzFrame rate : 41.667 FPS (1152 SPF)Compression mode : LossyStream size : 33.4 MiB (3%)Title : Zone Vision Studio 2x2Language : RussianDefault : YesForced : No

Audio #2ID : 3Format : VorbisFormat settings, Floor : 1Codec ID : A_VORBISDuration : 24 min 21 sBit rate mode : VariableBit rate : 256 kb/sChannel(s) : 2 channelsSampling rate : 48.0 kHzFrame rate : 127.651 FPS (376 SPF)Compression mode : LossyStream size : 44.4 MiB (4%)Title : LPCM->VorbisWriting library : aoTuV 20110424 (UTC 2011-04-24)Language : JapaneseDefault : NoForced : No

Menu00:00:00.000 : en:Prologue00:03:10.982 : en:Opening00:04:41.030 : en:Part A00:14:45.050 : en:Part B00:22:10.120 : en:Ending00:23:40.085 : en:Preview
Ванпанчмен (ТВ-1) / One Punch Man [TV] [12 из 12] [без хардсаба] [RUS(int)] [2015, приключения, фантастика, комедия, сэйнэн, SATRip] - bdrip

Ванпанчмен / One Punch Man / One-Punch Man (Нацумэ Синго) [TV+Special] [12+6 из 12+6] [без хардсаба] [RUS(ext),JAP+SUB] [2015, приключения, фантастика, комедия, BDRip] [720p] - озвучка 2х2
Ванпанчмен / One Punch Man / One-Punch Man (Нацумэ Синго) [TV+Special] [12+6 из 12+6] [без хардсаба] [RUS(ext),JAP+SUB] [2015, приключения, фантастика, комедия, BDRip] [720p] - озвучка 2х2


Трекер:  [ 04-Фев-2018 18:01 ]

  

Скачать .torrent

Размер .torrent файла 33 KB


Размер: 13.06 GB
Хэш (hash) релиза: 7453e8ce0474770a9780115aab4c651aa42ffcd1
Подписка на обновления:

Торренты, похожие на Ванпанчмен One Punch Man скачать торрент

Форум Название Автор Размер S L Добавлен
Аниме | HD Rips ·· Ванпанчмен / One Punch Man / One-Punch Man (Нацумэ Синго) [TV+Special] [12+6 из 12+6] [без хардсаба] [RUS(ext),JAP+SUB] [2015, приключения, фантастика, комедия, BDRip] [720p] Galfimbul 1852875583817.26 GB 0 0 1483639722

21:08

5-Янв-17

Аниме | Rips ·· Ванпанчмен / One Punch Man / One-Punch Man (Нацумэ Синго) [TV+Special] [12+6 из 12+6] [без хардсаба] [RUS(ext),JAP+SUB] [2015 г., приключения, фантастика, комедия, BDRip] [720p] Galfimbul 1744782800316.25 GB 0 0 1473015488

21:58

4-Сен-16

Аниме | HD Rips ·· Ванпанчмен / One Punch Man / One-Punch Man (Нацумэ Синго) [TV+Special] [12+6 из 12+6] [без хардсаба] [RUS(ext),JAP+SUB] [2015 г., приключения, фантастика, комедия, BDRip] [720p] Galfimbul 1744200515816.24 GB 0 0 1472587511

23:05

30-Авг-16

Аниме | HD Rips ·· Ванпанчмен / One Punch Man / One-Punch Man (Нацумэ Синго) [TV+Special] [8+4 из 12+6] [без хардсаба] [RUS(ext),JAP+SUB] [2015 г., приключения, фантастика, комедия, BDRip] [720p] Galfimbul 1161233566510.81 GB 0 0 1461704706

00:05

27-Апр-16

Аниме | Rips ·· Ванпанчмен / One-Punch Man / [TV-1] [02 из 12] [без хардсаба] [RUS(int)] [2015, приключения, фантастика, комедия, сэйнэн, SATRip] Galfimbul 866907856827 MB 0 0 1511130685

01:31

20-Ноя-17

Аниме | HD Rips ·· Ванпанчмен / One Punch Man (Нацумэ Синго) [TV+Special] [12+6 из 12+6] [без хардсаба] [RUS(ext), JAP+SUB] [2015 г., приключения, фантастика, комедия, сёнэн, BDRip] [1080p] Galfimbul 4361703487840.62 GB 0 0 1474812787

17:13

25-Сен-16

Аниме | HD Rips ·· Ванпанчмен / One Punch Man (Нацумэ Синго) [TV+Special] [8+4 из 12+6] [без хардсаба] [RUS(ext), JAP+SUB] [2015 г., приключения, фантастика, комедия, сёнэн, BDRip] [1080p] Galfimbul 2890404167626.92 GB 0 0 1474284839

14:33

19-Сен-16

Аниме | HD Rips ·· Ванпанчмен / One Punch Man (Нацумэ Синго) [TV+Special] [6+3 из 12+6] [без хардсаба] [RUS(ext), JAP+SUB] [2015 г., приключения, фантастика, комедия, сёнэн, BDRip] [1080p] Galfimbul 2145133770619.98 GB 0 0 1473352195

19:29

8-Сен-16

Аниме | HD Rips ·· Ванпанчмен / One Punch Man [TV+Special] [12+6 из 12+6] [Без хардсаба] [RUS(ext),JAP+SUB] [2015 г., приключения, фантастика, комедия, BDRip] [1080p] Galfimbul 2926491657027.26 GB 0 0 1472761470

23:24

1-Сен-16

Аниме | HD Rips ·· Ванпанчмен / One Punch Man [TV+Special] [12+6 из 12+6] [Без хардсаба] [RUS(ext),JAP+SUB] [2015 г., приключения, фантастика, комедия, BDRip] [1080p] Galfimbul 3124804326929.1 GB 0 0 1472693858

04:37

1-Сен-16

Аниме | HD Rips ·· Ванпанчмен / One Punch Man [TV+Special] [12+6 из 12+6] [Без хардсаба] [RUS(ext),JAP+SUB] [2015 г., приключения, фантастика, комедия, BDRip] [1080p] Galfimbul 2926491657027.26 GB 0 0 1472691746

04:02

1-Сен-16

Аниме | HD Rips ·· Ванпанчмен / One Punch Man [TV+Special] [12+6 из 12+6] [Без хардсаба] [RUS(ext),JAP+SUB] [2015 г., приключения, фантастика, комедия, BDRip] [1080p] Galfimbul 2899179317327 GB 0 0 1472050829

18:00

24-Авг-16

Аниме | HD Rips ·· Ванпанчмен / One Punch Man [TV+Special] [4+6 из 12+6] [Без хардсаба] [RUS(ext),JAP+SUB] [2015 г., приключения, фантастика, комедия, BDRip] [1080p] Galfimbul 1322533641812.32 GB 0 0 1471518506

14:08

18-Авг-16

Аниме | HD Rips ·· Ванпанчмен / One Punch Man (Нацумэ Синго) [TV+Special] [4+2 из 12+6] [без хардсаба] [RUS(ext), JAP+SUB] [2015 г., приключения, фантастика, комедия, сёнэн, BDRip] [1080p] Galfimbul 1454767351213.55 GB 0 0 1471183026

16:57

14-Авг-16

Аниме | HD Rips ·· Ванпанчмен / One-Punch Man (Нацумэ Синго) [TV] [12+6 из 12+6] [без хардсаба] [RUS(ext), JAP+SUB] [2015 г., приключения, фантастика, комедия, сэйнэн, BDRemux] [1080p] Galfimbul 108840502908101.37 GB 0 0 1470950977

00:29

12-Авг-16

Аниме | HD Rips ·· Ванпанчмен / One-Punch Man (Нацумэ Синго) [Special] [1-6 из 6] [без хардсаба] [RUS(int), JAP+SUB] [2015 г., приключения, фантастика, комедия, сэйнэн, BDRip] [1080p] Galfimbul 29924161512.79 GB 0 0 1466188405

21:33

17-Июн-16

Аниме | HD Rips ·· Ванпанчмен / One-Punch Man (Нацумэ Синго) [Special] [1-5 из 6] [без хардсаба] [RUS(int), JAP+SUB] [2015 г., приключения, фантастика, комедия, сэйнэн, BDRip] [1080p] Galfimbul 27868182522.6 GB 0 0 1465576915

19:41

10-Июн-16

Аниме | HD Rips ·· Ванпанчмен / One-Punch Man (Нацумэ Синго) [Special] [1-4 из 6] [без хардсаба] [RUS(int), JAP+SUB] [2015 г., приключения, фантастика, комедия, сэйнэн, BDRip] [1080p] Galfimbul 25257692722.35 GB 0 0 1460747206

22:06

15-Апр-16

Аниме | HD Rips ·· Ванпанчмен / One-Punch Man (Нацумэ Синго) [Special] [01-03 из 06] [без хардсаба] [RUS(int), JAP+SUB] [2015 г., приключения, фантастика, комедия, сэйнэн, BDRip] [1080p] Galfimbul 19781054061.84 GB 0 0 1457630046

20:14

10-Мар-16

Еще никто не оставлял запись к записи скачать торрент Ванпанчмен One Punch Man . Будь первым!

!Обратная связь