1x11 Te Recuerdo
1x04 Das Verschwinden

[ATV3] Suburbicon torrent

, , - AdBlock. #!


6.86 GB   |    :  18    |    .torrent :  27    |   
1  
   
...
 

Galfimbul

avatar Galfimbul


/ Suburbicon


6.556 / 10 5.40 / 10
: 2017
:
: , , ,
: 01:44:10

: (iTunes)
:
C:
:
: , ,
: , ,
:
:
: . , ,
:
: , , , , , , , , ,

: $5 775 178
: $488 007

: 2 2017
(): 16 2017, Cinema Prestige

: 23 2018, Cinema Prestige

: ! . . . . . , . , .
: BDRemux (NNMClub)
: BDRip
: HD (1080p)
: M4V
: H.264, 1920x800, 2.40:1, 8 000 Kbps, 23.976 (24000/1001) fps

1: / (iTunes), AAC / 2.0 / 160 Kbps / 48.0 KHz
2: / , AAC / 2.0 / 160 Kbps / 48.0 KHz
3: / (iTunes), AC-3 / 5.1 / 384 Kbps / 48.0 KHz
4: / , AC-3 / 5.1 / 640 Kbps / 48.0 KHz

:
Sort Name: Suburbicon
XID: Apple:vendor_id:2017-262051
contentID: 1293437205
Copyright: 2017 Paramount Pictures. All Rights Reserved
Screenwriters: , ,
Producers: , ,
Director:
Cast: , , , , , , , , , , , , , ,
Studio: Paramount Pictures
Rating: 5
Long Description: ! . . . . . , - . - , .
Description: ! . . . . . , - . - , .
Release Date: 2017-09-02T08:00:00Z
Genre: Comedy
Artist: George Clooney
Name: Suburbicon
General
Complete name : /Users/imac/HandBrake/Suburbicon (1080p HD).m4v
Format : MPEG-4
Codec ID : M4V (M4V /M4A /mp42/isom)
File size : 6.86 GiB
Duration : 1h 45mn
Overall bit rate mode : Variable
Overall bit rate : 9 344 Kbps
Movie name : Suburbicon
Performer : George Clooney
Director :
Actor : / / / / / / / / / / / / / /
Screenplay by : / /
Producer : / /
Production studio : Paramount Pictures
Genre : Comedy
ContentType : Short Film
Description : ! . . . . . , - . - , .
Recorded date : UTC 2017-09-02 08:00:00
Encoded date : UTC 2018-02-04 11:09:48
Tagged date : UTC 2018-02-04 11:27:42
Copyright : 2017 Paramount Pictures. All Rights Reserved
Cover : Yes
Rating : None
Title/Sort : Suburbicon
LongDescription : ! . . . . . , - . - , .
AppleStoreCatalogID : 1293437205
Vendor : Apple:vendor_id:2017-262051
ContentRating : mpaa|R|400|

Video #1
ID : 1
Format : AVC
Format/Info : Advanced Video Codec
Format profile : [email protected]
Format settings : CABAC / 4 Ref Frames
Format settings, CABAC : Yes
Format settings, ReFrames : 4 frames
Codec ID : avc1
Codec ID/Info : Advanced Video Coding
Duration : 1h 45mn
Source duration : 1h 45mn
Bit rate : 8 000 Kbps
Width : 1 920 pixels
Height : 800 pixels
Display aspect ratio : 2.40:1
Frame rate mode : Variable
Frame rate : 23.976 (24000/1001) fps
Minimum frame rate : 23.974 fps
Maximum frame rate : 23.981 fps
Color space : YUV
Chroma subsampling : 4:2:0
Bit depth : 8 bits
Scan type : Progressive
Bits/(Pixel*Frame) : 0.217
Stream size : 5.87 GiB (86%)
Source stream size : 5.87 GiB (86%)
Title : Main Program
Writing library : x264 core 148 r2708 86b7198
Encoding settings : cabac=1 / ref=4 / deblock=1:-2:-2 / analyse=0x3:0x133 / me=umh / subme=10 / psy=1 / psy_rd=1.00:0.15 / mixed_ref=1 / me_range=32 / chroma_me=1 / trellis=2 / 8x8dct=1 / cqm=0 / deadzone=21,11 / fast_pskip=1 / chroma_qp_offset=-3 / threads=25 / lookahead_threads=6 / sliced_threads=0 / nr=0 / decimate=0 / interlaced=0 / bluray_compat=0 / constrained_intra=0 / bframes=16 / b_pyramid=2 / b_adapt=2 / b_bias=0 / direct=3 / weightb=1 / open_gop=0 / weightp=2 / keyint=240 / keyint_min=24 / scenecut=40 / intra_refresh=0 / rc_lookahead=40 / rc=2pass / mbtree=1 / bitrate=8000 / ratetol=1.0 / qcomp=0.70 / qpmin=0 / qpmax=69 / qpstep=4 / cplxblur=20.0 / qblur=0.5 / ip_ratio=1.40 / aq=1:1.00
Language : English
Encoded date : UTC 2018-02-04 11:09:48
Tagged date : UTC 2018-02-04 11:10:04
Color range : Limited
Color primaries : BT.709
Transfer characteristics : BT.709
Matrix coefficients : BT.709
Menus : 7,8

Video #2
ID : 8
Format : JPEG
Codec ID : jpeg
Duration : 1h 45mn
Bit rate mode : Variable
Bit rate : 516 bps
Width : 640 pixels
Height : 266 pixels
Display aspect ratio : 2.40:1
Frame rate mode : Variable
Frame rate : 0.002 fps
Minimum frame rate : 0.002 fps
Maximum frame rate : 0.005 fps
Color space : YUV
Chroma subsampling : 4:2:0
Bit depth : 8 bits
Compression mode : Lossy
Bits/(Pixel*Frame) : 1.516
Stream size : 473 KiB (0%)
Title : Chapter Images
Language : English
Default : No
Encoded date : UTC 2018-02-04 11:10:15
Tagged date : UTC 2018-02-04 11:10:15
Menu For : 1

Audio #1
ID : 2
Format : AAC
Format/Info : Advanced Audio Codec
Format profile : LC
Codec ID : mp4a-40-2
Duration : 1h 44mn
Source duration : 1h 44mn
Bit rate mode : Variable
Bit rate : 157 Kbps
Maximum bit rate : 237 Kbps
Channel(s) : 2 channels
Channel positions : Front: L R
Sampling rate : 48.0 KHz
Frame rate : 46.875 fps (1024 SPF)
Compression mode : Lossy
Stream size : 118 MiB (2%)
Source stream size : 118 MiB (2%)
Title : Russian Stereo
Language : Russian
Default : Yes
Alternate group : 1
Encoded date : UTC 2018-02-04 11:09:48
Tagged date : UTC 2018-02-04 11:10:09
Fallback From : 4
Menus : 7

Audio #2
ID : 3
Format : AAC
Format/Info : Advanced Audio Codec
Format profile : LC
Codec ID : mp4a-40-2
Duration : 1h 45mn
Source duration : 1h 45mn
Bit rate mode : Variable
Bit rate : 157 Kbps
Maximum bit rate : 258 Kbps
Channel(s) : 2 channels
Channel positions : Front: L R
Sampling rate : 48.0 KHz
Frame rate : 46.875 fps (1024 SPF)
Compression mode : Lossy
Stream size : 118 MiB (2%)
Source stream size : 118 MiB (2%)
Title : English Stereo
Language : English
Default : No
Alternate group : 1
Encoded date : UTC 2018-02-04 11:09:48
Tagged date : UTC 2018-02-04 11:10:09
Fallback From : 5

Audio #3
ID : 4
Format : AC-3
Format/Info : Audio Coding 3
Codec ID : ac-3
Duration : 1h 44mn
Bit rate mode : Constant
Bit rate : 384 Kbps
Channel(s) : 6 channels
Channel positions : Front: L C R, Side: L R, LFE
Sampling rate : 48.0 KHz
Frame rate : 31.250 fps (1536 SPF)
Bit depth : 16 bits
Compression mode : Lossy
Stream size : 287 MiB (4%)
Title : Russian DD 5.1
Language : Russian
Service kind : Complete Main
Default : Inherited From: 2
Alternate group : 1
Encoded date : UTC 2018-02-04 11:09:48
Tagged date : UTC 2018-02-04 11:09:58
Fallback To : 2

Audio #4
ID : 5
Format : AC-3
Format/Info : Audio Coding 3
Codec ID : ac-3
Duration : 1h 45mn
Bit rate mode : Constant
Bit rate : 640 Kbps
Channel(s) : 6 channels
Channel positions : Front: L C R, Side: L R, LFE
Sampling rate : 48.0 KHz
Frame rate : 31.250 fps (1536 SPF)
Bit depth : 16 bits
Compression mode : Lossy
Stream size : 481 MiB (7%)
Title : English DD 5.1
Language : English
Service kind : Complete Main
Default : No
Alternate group : 1
Encoded date : UTC 2018-02-04 11:09:48
Tagged date : UTC 2018-02-04 11:09:58
Fallback To : 3

Text
ID : 6
Format : Timed Text
Muxing mode : sbtl
Codec ID : tx3g
Duration : 1h 35mn
Bit rate mode : Variable
Bit rate : 64 bps
Stream size : 44.9 KiB (0%)
Title : English full
Language : English
Default : Yes
Forced : No
Alternate group : 2
Encoded date : UTC 2018-02-04 11:09:48
Tagged date : UTC 2018-02-04 11:09:48

Menu #1
00:00:00.000 : Chapter 1
00:04:50.165 : Chapter 2
00:15:11.452 : Chapter 3
00:23:09.305 : Chapter 4
00:33:08.612 : Chapter 5
00:39:36.916 : Chapter 6
00:44:29.125 : Chapter 7
00:49:19.540 : Chapter 8
00:56:36.560 : Chapter 9
01:05:06.778 : Chapter 10
01:14:14.283 : Chapter 11
01:23:46.855 : Chapter 12
01:27:54.352 : Chapter 13
01:33:47.914 : Chapter 14
01:37:15.204 : Chapter 15

Menu #2
ID : 7
Codec ID : text
Duration : 1h 45mn
Language : English
Encoded date : UTC 2018-02-04 11:10:09
Tagged date : UTC 2018-02-04 11:10:09
Menu For : 2,1
00:00:00.000 : Chapter 1
00:04:50.165 : Chapter 2
00:15:11.452 : Chapter 3
00:23:09.305 : Chapter 4
00:33:08.612 : Chapter 5
00:39:36.916 : Chapter 6
00:44:29.125 : Chapter 7
00:49:19.540 : Chapter 8
00:56:36.560 : Chapter 9
01:05:06.778 : Chapter 10
01:14:14.283 : Chapter 11
01:23:46.855 : Chapter 12
01:27:54.352 : Chapter 13
01:33:47.914 : Chapter 14
01:37:15.204 : Chapter 15
Bit rate mode : VBR
x264 [info]: frame I:997 Avg QP:14.41 size:211162
x264 [info]: frame P:29516 Avg QP:17.34 size: 68664
x264 [info]: frame B:120597 Avg QP:17.80 size: 33690
x264 [info]: consecutive B-frames: 1.3% 2.3% 6.5% 6.7% 14.9% 58.7% 5.0% 0.7% 0.5% 0.4% 0.3% 0.7% 0.3% 0.2% 0.4% 0.3% 0.7%
x264 [info]: mb I I16..4: 12.9% 77.7% 9.4%
x264 [info]: mb P I16..4: 1.5% 14.1% 0.7% P16..4: 40.9% 20.2% 13.1% 0.4% 0.1% skip: 9.0%
x264 [info]: mb B I16..4: 0.1% 2.5% 0.0% B16..8: 40.0% 10.3% 2.4% direct: 8.2% skip:36.4% L0:45.6% L1:43.4% BI:11.0%
x264 [info]: 8x8 transform intra:88.7% inter:54.0%
x264 [info]: direct mvs spatial:98.5% temporal:1.5%
x264 [info]: coded y,uvDC,uvAC intra: 92.9% 86.8% 71.7% inter: 31.5% 34.9% 18.7%
x264 [info]: i16 v,h,dc,p: 38% 10% 17% 35%
x264 [info]: i8 v,h,dc,ddl,ddr,vr,hd,vl,hu: 9% 8% 15% 10% 12% 11% 11% 11% 12%
x264 [info]: i4 v,h,dc,ddl,ddr,vr,hd,vl,hu: 11% 9% 4% 9% 15% 14% 13% 11% 12%
x264 [info]: i8c dc,h,v,p: 55% 17% 15% 13%
x264 [info]: Weighted P-Frames: Y:2.0% UV:1.3%
x264 [info]: ref P L0: 49.0% 7.8% 30.3% 12.6% 0.2% 0.0%
x264 [info]: ref B L0: 78.5% 17.6% 4.0%
x264 [info]: ref B L1: 91.0% 9.0%
x264 [info]: kb/s:7996.90

Apple TV, iPad, iPhone, iPod Touch.
Windows VLC media player

 ·  , , FAQ-
:  [ 04--2018 15:12 ]

  

.torrent

.torrent 69 KB


: 6.86 GB
(hash) : a3d61acaaeadb25a5c8de2eb061e14ca04e85ce5
··
...

, [ATV3] Suburbicon

S L
(iPhone/iPod Touch/iPad) ·· [ATV3] / Suburbicon ( / George Clooney ) [2017, , , , , , WEB-DL, HD (1080p)] DUB Galfimbul 40285214533.75 GB 0 0 1516704180

13:43

23--18

[ATV3] Suburbicon . !

!