FxSound Enhancer Premium 13 020 + Crack [CracksNow] | Charlene Choi | Season 3 Episode 4 A Night at the Opera

Скачать через торрент ЛЕГО Ниндзяго Фильм в 3Д The LEGO Ninjago Movie 3D Фильм бесплатно в хорошем качестве torrent

Скачивайте на UnionPeer.org фильмы через торрент без регистрации. Новинки кино в хорошем качестве через торрент. На UnionPeer.org можно скачать через торрент фильмы 2014 и 2015 годов. Самые новые фильмы.

Скачать торрент ЛЕГО Ниндзяго Фильм в 3Д The LEGO Ninjago Movie 3D бесплатно через .torrent фильм мультфильм сериал

Статистика раздачи
Размер:  6.58 GB   |    Зарегистрирован:  4 месяца 16 дней   |    .torrent скачан:  37 раз   |   
Раздают:  1  
   
загрузка...
 
Автор Сообщение

Galfimbul

avatar Galfimbul



ЛЕГО Ниндзяго Фильм
The LEGO Ninjago Movie
«Открой в себе ниндзя»
Год выпуска: 2017
Страна: США, Дания (Warner Bros. Pictures, Warner Animation Group, An Access Entertainment Company, LEGO System A/S, RatPac-Dune Entertainment, Lin Pictures, Lord Miller, Vertigo Entertainment)
Жанр: Мультфильм, Боевик, Комедия, Приключения, Семейный
Продолжительность: 01:41:27

Перевод: Профессиональный дублированный (лицензия)

Режиссеры: Чарли Бин, Пол Фишер, Боб Логан / Charlie Bean, Paul Fisher, Bob Logan
Роли озвучивали (дублировали):



Master Wu / Mr. Liu - Джеки Чан (Михаил Галустян)
Lloyd - Дэйв Франко (Тимур Родригез)
Cole - Фред Армисен (Алексей Костричкин)
Jay - Кумэйл Нанджиани (Иван Калинин)
Kai - Майкл Пенья (Глеб Гаврилов)
Nya - Эбби Джейкобсон (Мария Иващенко)
Zane - Зак Вудс (Диомид Виноградов)
Fuchsia Ninja - Дэвид Берроуз
Garmadon - Джастин Теру (Александр Носков)
General Olivia - Али Вонг (Алена Фалалеева)
Koko - Оливия Манн (Ирина Киреева)
Описание: Ниндзяго-сити призывает на свою защиту юного Ллойда, он же Зеленый ниндзя, и его друзей, тайных воинов и Великих мастеров ЛЕГО. Под предводительством кунг-фу мастера Ву, столь же умного, сколь и остроумного, они должны одолеть злобного диктатора Гармадона, Самого Злодейского Злодея, который оказывается отцом Ллойда. Роботы против роботов, сын против отца; эпическое столкновение проверит на прочность эту неистовую, но не самую дисциплинированную команду современных ниндзя, которые должны научиться усмирять свое самомнение, чтобы по полной проявить свои способности.
Премьера: 20 сентября 2017
Бюджет: $70 000 000
Кассовые сборы: $123 081 555
. .
Качество: BDRip (by Ash61)
Контейнер: MKV
Формат 3D: Half OverUnder / Вертикальная анаморфная стереопара
Порядок ракурсов: левый ракурс первый
Видео: AVC / 1920х1080p / 23,976 fps / 8000 Kbps

Аудио:
#1 - Русский / AC3 / 48 KHz / 5.1 ch / 448 Kbps (Дубляж - BD 3D Eur)
#2 - Украинский / AC3 / 48 KHz / 2 ch / 192 Kbps (Дубляж - Line) [моно] (Спасибо Hurtom!)
#3 - Английский / AC3 / 48 KHz / 5.1 ch / 640 Kbps (Original - BD 3D Eur)

Субтитры (SRT):
Вшитые (softsub):
#1 - Русские Форсированные (включены по умолчанию)
#2 - Русские Полные
#3 - Украинские Форсированные [Ash61]
#4 - English Full
#5 - English SDH

Внешние (UTF-8):
#1 - Русские Форсированные (включены по умолчанию)
#2 - Русские Полные
#3 - Украинские Форсированные [Ash61]
General
Unique ID : 58172122210029791358526062467736558912 (0x2BC38B0FC382076235EF5F81FA525D40)
Complete name : D:\TheLegoNinjagoMovie(2017)3D-halfOU(Ash61)\TheLegoNinjagoMovie(2017)3D-halfOU(Ash61).mkv
Format : Matroska
Format version : Version 4 / Version 2
File size : 6.58 GiB
Duration : 1h 41mn
Overall bit rate : 9 279 Kbps
Movie name : ЛЕГО Ниндзяго Фильм / The LEGO Ninjago Movie (2017) in 3D
Encoded date : UTC 2018-01-18 20:10:11
Writing application : mkvmerge v19.0.0 ('Brave Captain') 64-bit
Writing library : libebml v1.3.5 + libmatroska v1.4.8

Video
ID : 1
Format : AVC
Format/Info : Advanced Video Codec
Format profile : [email protected]
Format settings, CABAC : Yes
Format settings, ReFrames : 4 frames
Codec ID : V_MPEG4/ISO/AVC
Duration : 1h 41mn
Bit rate : 8 000 Kbps
Width : 1 920 pixels
Height : 1 080 pixels
Display aspect ratio : 16:9
Frame rate mode : Constant
Frame rate : 23.976 (24000/1001) fps
Color space : YUV
Chroma subsampling : 4:2:0
Bit depth : 8 bits
Scan type : Progressive
Bits/(Pixel*Frame) : 0.161
Stream size : 5.67 GiB (86%)
Title : BDRip by Ash61
Writing library : x264 core 146 r2538 121396c
Encoding settings : cabac=1 / ref=4 / deblock=1:-3:-3 / analyse=0x3:0x113 / me=umh / subme=10 / psy=1 / psy_rd=1.00:0.00 / mixed_ref=1 / me_range=32 / chroma_me=1 / trellis=2 / 8x8dct=1 / cqm=0 / deadzone=21,11 / fast_pskip=0 / chroma_qp_offset=-2 / threads=12 / lookahead_threads=2 / sliced_threads=0 / nr=0 / decimate=0 / interlaced=0 / bluray_compat=0 / constrained_intra=0 / bframes=8 / b_pyramid=2 / b_adapt=2 / b_bias=0 / direct=3 / weightb=1 / open_gop=0 / weightp=2 / keyint=250 / keyint_min=23 / scenecut=40 / intra_refresh=0 / rc_lookahead=60 / rc=2pass / mbtree=0 / bitrate=8000 / ratetol=1.0 / qcomp=0.70 / qpmin=0 / qpmax=69 / qpstep=4 / cplxblur=20.0 / qblur=0.5 / vbv_maxrate=40000 / vbv_bufsize=30000 / nal_hrd=none / filler=0 / frame-packing=4 / ip_ratio=1.40 / pb_ratio=1.30 / aq=1:0.70
Language : English
Default : Yes
Forced : No

Audio #1
ID : 2
Format : AC-3
Format/Info : Audio Coding 3
Mode extension : CM (complete main)
Format settings, Endianness : Big
Codec ID : A_AC3
Duration : 1h 41mn
Bit rate mode : Constant
Bit rate : 448 Kbps
Channel(s) : 6 channels
Channel positions : Front: L C R, Side: L R, LFE
Sampling rate : 48.0 KHz
Frame rate : 31.250 fps (1536 spf)
Compression mode : Lossy
Stream size : 325 MiB (5%)
Title : Дубляж - BD 3D Eur
Language : Russian
Default : Yes
Forced : No

Audio #2
ID : 3
Format : AC-3
Format/Info : Audio Coding 3
Mode extension : CM (complete main)
Format settings, Endianness : Big
Codec ID : A_AC3
Duration : 1h 41mn
Bit rate mode : Constant
Bit rate : 192 Kbps
Channel(s) : 2 channels
Channel positions : Front: L R
Sampling rate : 48.0 KHz
Frame rate : 31.250 fps (1536 spf)
Compression mode : Lossy
Stream size : 139 MiB (2%)
Title : Дубляж - Line (моно)
Language : Ukrainian
Default : No
Forced : No

Audio #3
ID : 4
Format : AC-3
Format/Info : Audio Coding 3
Mode extension : CM (complete main)
Format settings, Endianness : Big
Codec ID : A_AC3
Duration : 1h 41mn
Bit rate mode : Constant
Bit rate : 640 Kbps
Channel(s) : 6 channels
Channel positions : Front: L C R, Side: L R, LFE
Sampling rate : 48.0 KHz
Frame rate : 31.250 fps (1536 spf)
Compression mode : Lossy
Stream size : 464 MiB (7%)
Title : Original - BD 3D Eur
Language : English
Default : No
Forced : No

Text #1
ID : 5
Format : UTF-8
Codec ID : S_TEXT/UTF8
Codec ID/Info : UTF-8 Plain Text
Duration : 1h 37mn
Bit rate : 1 bps
Count of elements : 22
Stream size : 842 Bytes (0%)
Title : Форсированные
Language : Russian
Default : Yes
Forced : No

Text #2
ID : 6
Format : UTF-8
Codec ID : S_TEXT/UTF8
Codec ID/Info : UTF-8 Plain Text
Duration : 1h 40mn
Bit rate : 123 bps
Count of elements : 1784
Stream size : 91.5 KiB (0%)
Title : Полные
Language : Russian
Default : No
Forced : No

Text #3
ID : 7
Format : UTF-8
Codec ID : S_TEXT/UTF8
Codec ID/Info : UTF-8 Plain Text
Duration : 1h 37mn
Bit rate : 1 bps
Count of elements : 22
Stream size : 1 012 Bytes (0%)
Title : Форсированные (Ash61)
Language : Ukrainian
Default : No
Forced : No

Text #4
ID : 8
Format : UTF-8
Codec ID : S_TEXT/UTF8
Codec ID/Info : UTF-8 Plain Text
Duration : 1h 40mn
Bit rate : 77 bps
Count of elements : 1819
Stream size : 57.3 KiB (0%)
Title : Full (BD 3D Eur)
Language : English
Default : No
Forced : No

Text #5
ID : 9
Format : UTF-8
Codec ID : S_TEXT/UTF8
Codec ID/Info : UTF-8 Plain Text
Duration : 1h 40mn
Bit rate : 84 bps
Count of elements : 1947
Stream size : 62.4 KiB (0%)
Title : SDH (BD 3D Eur)
Language : English
Default : No
Forced : No

Menu
00:00:00.000 : :1
00:11:44.746 : :2
00:23:32.453 : :3
00:31:09.785 : :4
00:40:53.368 : :5
00:53:48.392 : :6
01:03:05.532 : :7
01:16:07.688 : :8
01:25:13.608 : :9
01:32:10.900 : :10


Трекер:  [ 04-Фев-2018 14:30 ]

  

Скачать .torrent

Размер .torrent файла 33 KB


Размер: 6.58 GB
Хэш (hash) релиза: 5b4a100004e09406586f57459b5ae23571594823
Подписка на обновления:

Торренты, похожие на ЛЕГО Ниндзяго Фильм в 3Д The LEGO Ninjago Movie 3D скачать торрент

Форум Название Автор Размер S L Добавлен
3D Мультфильмы ·· ЛЕГО Ниндзяго Фильм в 3Д / The LEGO Ninjago Movie 3D (Чарли Бин, Пол Фишер, Боб Логан / Charlie Bean, Paul Fisher, Bob Logan) [2017, Мультфильм, Боевик, Комедия, Приключения, Семейный, BDRip, 1080p] OverUnder / Вертикальная стереопара Galfimbul 87783844718.18 GB 0 0 1517739351

13:15

4-Фев-18

Еще никто не оставлял запись к записи скачать торрент ЛЕГО Ниндзяго Фильм в 3Д The LEGO Ninjago Movie 3D . Будь первым!

!Обратная связь